Статистика раздачи
Скачал: [ 4 ]
 
   
 
 

[Цитировать]
Magnat

- Нация убийц / Assassination Nation/- Производство: США, BRON Studios, Foxtail Entertainment, Phantom Four, Creative Wealth Media Finance
Жанр: Триллер, Драма, Комедия, Криминал
Режиссер: Сэм Левинсон
Продюсер: Маню Гарги, Аарон Л. Гилберт
Актеры: Одесса Янг, Хари Неф, Сьюки Уотерхаус, Абра, Колман Доминго, Билл Скарсгард, Джоэл МакХэйл, Аника Нони Роуз, Белла Торн-Селфи, эмоджи, снэпчаты и секстинг — вот в чем хороши старшеклассница Лили и ее лучшие подруги, живущие в мире бесконечных угарных вечеринок, интриг и секса без обязательств. Но, когда в результате хакерской атаки в открытый доступ выливаются тонны грязи и компромата, именно их делают крайними. Тихий городок Салем погружается в пучину кровавой анархии, и выжить здесь можно только убивая на опережение…
Возраст: 18+ (зрителям, достигшим 18 лет. запрещено для детей)
Рейтинг MPAA: R (лицам до 17 лет обязательно присутствие взрослого)
Продолжительность: 01:47:59
Качество видео: BDRip
Перевод: Отсутствует
Язык озвучки: Украинский дубляж (студия AAA-Sound), английский (оригинал)
Субтитры: Английские
Видео: AVC/H.264, 1920x808, 8 634 kbps
Аудио 1: AC3, 2 ch, 192 Kbps | Украинский дубляж (AAA-Sound)
Аудио 2: DTS, 6 ch, 1509 Kbps | English (оригинал)

Mediainfo:

General
Unique ID : 229912134883368597284983029075408767976 (0xACF7776D86B728868C6066B361AECBE8)
Complete name : Assassination Nation.2018.BDRip.1080p.Ukr.Eng.mkv
Format : Matroska
Format version : Version 4
File size : 7.80 GiB
Duration : 1 h 47 min
Overall bit rate : 10.3 Mb/s
Encoded date : UTC 2018-12-09 14:19:18
Writing application : mkvmerge v8.3.0 ('Over the Horizon') 64bit
Writing library : libebml v1.3.1 + libmatroska v1.4.2
Video
ID : 1
Format : AVC
Format/Info : Advanced Video Codec
Format profile : High@L4.1
Format settings : CABAC / 5 Ref Frames
Format settings, CABAC : Yes
Format settings, ReFrames : 5 frames
Codec ID : V_MPEG4/ISO/AVC
Duration : 1 h 47 min
Bit rate : 8 634 kb/s
Width : 1 920 pixels
Height : 808 pixels
Display aspect ratio : 2.40:1
Frame rate mode : Constant
Frame rate : 23.976 (24000/1001) FPS
Color space : YUV
Chroma subsampling : 4:2:0
Bit depth : 8 bits
Scan type : Progressive
Bits/(Pixel*Frame) : 0.232
Stream size : 6.51 GiB (83%)
Writing library : x264 core 157 r2935 545de2f
Encoding settings : cabac=1 / ref=5 / deblock=1:-3:-3 / analyse=0x3:0x133 / me=umh / subme=8 / psy=1 / psy_rd=1.00:0.00 / mixed_ref=1 / me_range=16 / chroma_me=1 / trellis=1 / 8x8dct=1 / cqm=0 / deadzone=21,11 / fast_pskip=0 / chroma_qp_offset=-2 / threads=25 / lookahead_threads=4 / sliced_threads=0 / nr=0 / decimate=1 / interlaced=0 / bluray_compat=0 / constrained_intra=0 / bframes=3 / b_pyramid=2 / b_adapt=1 / b_bias=0 / direct=3 / weightb=1 / open_gop=0 / weightp=2 / keyint=250 / keyint_min=23 / scenecut=40 / intra_refresh=0 / rc_lookahead=50 / rc=2pass / mbtree=1 / bitrate=8634 / ratetol=1.0 / qcomp=0.60 / qpmin=0 / qpmax=69 / qpstep=4 / cplxblur=20.0 / qblur=0.5 / vbv_maxrate=62500 / vbv_bufsize=78125 / nal_hrd=none / filler=0 / ip_ratio=1.40 / aq=1:1.00
Default : Yes
Forced : No
Audio #1
ID : 2
Format : AC-3
Format/Info : Audio Coding 3
Commercial name : Dolby Digital
Codec ID : A_AC3
Duration : 1 h 47 min
Bit rate mode : Constant
Bit rate : 192 kb/s
Channel(s) : 2 channels
Channel layout : L R
Sampling rate : 48.0 kHz
Frame rate : 31.250 FPS (1536 SPF)
Bit depth : 16 bits
Compression mode : Lossy
Stream size : 148 MiB (2%)
Title : AAA-Sound
Language : Ukrainian
Service kind : Complete Main
Default : Yes
Forced : No
Audio #2
ID : 3
Format : DTS
Format/Info : Digital Theater Systems
Codec ID : A_DTS
Duration : 1 h 47 min
Bit rate mode : Constant
Bit rate : 1 509 kb/s
Channel(s) : 6 channels
Channel layout : C L R Ls Rs LFE
Sampling rate : 48.0 kHz
Frame rate : 93.750 FPS (512 SPF)
Bit depth : 24 bits
Compression mode : Lossy
Stream size : 1.14 GiB (15%)
Language : English
Default : No
Forced : No
Text
ID : 4
Format : VobSub
Muxing mode : zlib
Codec ID : S_VOBSUB
Codec ID/Info : Picture based subtitle format used on DVDs
Duration : 1 h 46 min
Bit rate : 4 581 b/s
Count of elements : 1589
Stream size : 3.50 MiB (0%)
Language : English
Default : Yes
Forced : No
Menu
00:00:00.000 : :00:00:00.000
00:22:06.367 : :00:22:06.367
00:43:51.712 : :00:43:51.712
01:01:11.334 : :01:01:11.334
01:16:31.170 : :01:16:31.170
01:21:47.694 : :01:21:47.694
01:28:27.135 : :01:28:27.135
01:39:32.884 : :01:39:32.884
Скриншоты:
Показать сообщения:    

Текущее время: 24-Мар 23:31

Часовой пояс: UTC ± 0


Вы не можете начинать темы
Вы не можете отвечать на сообщения
Вы не можете редактировать свои сообщения
Вы не можете удалять свои сообщения
Вы не можете голосовать в опросах
Вы не можете прикреплять файлы к сообщениям
Вы не можете скачивать файлы

!ВНИМАНИЕ!
Сайт не предоставляет электронные версии произведений, а занимается лишь коллекционированием и каталогизацией ссылок, присылаемых и публикуемых на форуме нашими читателями. Если вы являетесь правообладателем какого-либо представленного материала и не желаете, чтобы ссылка на него находилась в нашем каталоге, свяжитесь с нами, и мы незамедлительно удалим ее. Файлы для обмена на трекере предоставлены пользователями сайта, и администрация не несет ответственности за их содержание. Просьба не заливать файлы, защищенные авторскими правами, а также файлы нелегального содержания!