DL-List and Torrent activity
Complete: [ 1 ]
 
   
 
 

[Quote]
DOMINION

Информация о фильме
Название: Автостопом по галактике
Оригинальное название: The Hitchhiker's Guide to the Galaxy
Год выхода: 2005
Жанр: Фантастика, комедия, приключения
Режиссер: Гарт Дженнингс
В ролях: Мос Деф, Мартин Фриман, Сэм Рокуэлл, Зои Дешанель, Анна Чэнселлор, Уорвик Дэвис, Су Эллиот, Стивен Фрай, Ричард Гриффитс, Доминик Джексон, Саймон Джонс, Марк Лонгхерст, Келли Макдональд, Джон Малкович, Иэн МакНис, Хелен Миррен, Билл Найи, Стив Пембертон, Марк Гэтисс, Рис Шерсмит, Джек Стэнли, Элби Вудингтон, Дэнни Блэкнер, Хейли Барроуз, Найджел Пласкитт, Жером Блэйк, Тим Перрин, Спенсер Уидлинг, Рэй Донн, Джон Гомес, Сьюзи Госслинг Валерио, Джейсон Шварцман, Эдгар Райт, Сесиль Фэй, Таккер Стивенс, Бен Аттли
О фильме:
В один прекрасный день над Землей нависли огромные звездолеты инопланетян, и людям объявили, что их родная планета подлежит сносу, а на ее месте будет проложено шикарное межзвездное шоссе. Н-да, не повезло человечеству. Кроме самого заурядного парня по имени Артур Дент, старый друг и собутыльник которого Форд Префект оказался... инопланетянином!
Страна: Великобритания, США
Студия: Touchstone Pictures, Spyglass Entertainment, Hammer & Tongs, Everyman Pictures
Продолжительность: 01:48:46
Перевод: Профессиональный (полное дублирование)
Файл
Формат: MKV
Качество: HDRip-AVC
Видео: MPEG-4 AVC, 768x320, - 881 Кбит/с
Аудио: AAC-HE, 2 ch, - 76 Кбит/с
Субтитры: Русские

MI

Общее
Уникальный идентификатор : 234061398201856551310917577291537235391 (0xB01695E767ADD51D091C08B44182BDBF)
Полное имя : D:MOVIESAvtostopom.Po.Galaktike.2005.HDRip-AVC..mkv
Формат : Matroska
Версия формата : Version 4 / Version 2
Размер файла : 746 Мбайт
Продолжительность : 1 ч. 48 м.
Общий поток : 959 Кбит/сек
Дата кодирования : UTC 2019-08-14 04:01:38
Программа кодирования : mkvmerge v35.0.0 ('All The Love In The World') 64-bit
Библиотека кодирования : libebml v1.3.9 + libmatroska v1.5.2
Видео
Идентификатор : 1
Формат : AVC
Формат/Информация : Advanced Video Codec
Профиль формата : High@L4.1
Параметр CABAC формата : Да
Параметр RefFrames формата : 12 кадров
Идентификатор кодека : V_MPEG4/ISO/AVC
Продолжительность : 1 ч. 48 м.
Битрейт : 881 Кбит/сек
Ширина : 768 пикселей
Высота : 320 пикселей
Соотношение сторон : 2,40:1
Режим частоты кадров : Постоянный
Частота кадров : 23,976 (24000/1001) кадра/сек
Цветовое пространство : YUV
Субдискретизация насыщенности : 4:2:0
Битовая глубина : 8 бит
Тип развёртки : Прогрессивная
Бит/(Пиксели*Кадры) : 0.150
Размер потока : 685 Мбайт (92%)
Библиотека кодирования : x264 core 152 r2851kMod ba24899
Настройки программы : cabac=1 / ref=12 / deblock=1:-3:-3 / analyse=0x3:0x133 / me=umh / subme=10 / psy=1 / fade_compensate=0.00 / psy_rd=1.00:0.12 / mixed_ref=1 / me_range=32 / chroma_me=1 / trellis=2 / 8x8dct=1 / cqm=0 / deadzone=21,11 / fast_pskip=0 / chroma_qp_offset=-3 / threads=6 / lookahead_threads=1 / sliced_threads=0 / nr=0 / decimate=0 / interlaced=0 / bluray_compat=0 / constrained_intra=0 / bframes=12 / b_pyramid=2 / b_adapt=2 / b_bias=0 / direct=3 / weightb=1 / open_gop=0 / weightp=2 / keyint=240 / keyint_min=23 / scenecut=40 / intra_refresh=0 / rc_lookahead=40 / rc=2pass / mbtree=1 / bitrate=881 / ratetol=1.0 / qcomp=0.60 / qpmin=0 / qpmax=69 / qpstep=4 / cplxblur=20.0 / qblur=0.5 / ip_ratio=1.40 / aq=3:1.00
Default : Да
Forced : Нет
Аудио
Идентификатор : 2
Формат : AAC
Формат/Информация : Advanced Audio Codec
Профиль формата : HE-AAC / LC
Идентификатор кодека : A_AAC
Продолжительность : 1 ч. 48 м.
Битрейт : 76,0 Кбит/сек
Каналы : 2 канала
Расположение каналов : Front: L R
Частота : 48,0 КГц / 24,0 КГц
Частота кадров : 23,438 кадра/сек (1024 SPF)
Метод сжатия : С потерями
Задержка видео : 31 мс.
Размер потока : 59,1 Мбайт (8%)
Язык : Russian
Default : Да
Forced : Нет
Текст
Идентификатор : 3
Формат : UTF-8
Идентификатор кодека : S_TEXT/UTF8
Идентификатор кодека/Информация : UTF-8 Plain Text
Продолжительность : 1 ч. 46 м.
Битрейт : 107 бит/сек
ElementCount : 1405
Размер потока : 83,8 Кбайт (0%)
Язык : Russian
Default : Нет
Forced : Нет
Меню
00:00:00.000 : en:00:00:00.000
00:03:53.233 : en:00:03:53.233
00:06:46.781 : en:00:06:46.781
00:12:57.485 : en:00:12:57.485
00:14:33.247 : en:00:14:33.247
00:18:34.697 : en:00:18:34.697
00:25:41.331 : en:00:25:41.331
00:30:17.274 : en:00:30:17.274
00:34:33.321 : en:00:34:33.321
00:40:10.950 : en:00:40:10.950
00:43:55.633 : en:00:43:55.633
00:48:41.669 : en:00:48:41.669
00:52:33.984 : en:00:52:33.984
00:56:34.766 : en:00:56:34.766
01:01:03.827 : en:01:01:03.827
01:06:15.889 : en:01:06:15.889
01:10:18.798 : en:01:10:18.798
01:14:01.979 : en:01:14:01.979
01:18:38.631 : en:01:18:38.631
01:23:06.356 : en:01:23:06.356
01:26:01.448 : en:01:26:01.448
01:30:46.316 : en:01:30:46.316
01:35:49.786 : en:01:35:49.786
01:41:53.816 : en:01:41:53.816
01:48:46.270 : en:01:48:46.270

Скриншоты

Display posts:    

Current time is: 28-Nov 20:12

All times are UTC ± 0


You cannot post new topics in this forum
You cannot reply to topics in this forum
You cannot edit your posts in this forum
You cannot delete your posts in this forum
You cannot vote in polls in this forum
You cannot attach files in this forum
You cannot download files in this forum

!ATTENTION!
The site does not give electronic versions of products, and is engaged only in a collecting and cataloguing of the references sent and published at a forum by our readers. If you are the legal owner of any submitted material and do not wish that the reference to it was in our catalogue, contact us and we shall immediately remove her. Files for an exchange on tracker are given by users of a site, and the administration does not bear the responsibility for their maintenance. The request to not fill in the files protected by copyrights, and also files of the illegal maintenance!