DL-List and Torrent activity
None
 
   
 
 

[Quote]
CMIT

Инкарнация / Incarnate
Страна: США
Жанр: Ужасы, триллер
Год выпуска: 2016
Продолжительность: 01:27:49
Перевод: Профессиональный (дублированный) iTunes
Режиссер: Брэд Пейтон
В ролях: Кэрис ван Хаутен, Аарон Экхарт, Дэвид Мазоуз, Каталина Сандино Морено, Эмджей Энтони, Мэттью Нэйбл, Бриэнн Хилл, Каролина Выдра, Кейр О’Доннелл, Марк Стегер
Описание: Он — не экзорцист. У него свои методы изгонять зло, поселившееся в людях. Но, проникнув в сознание 11-летнего мальчика, он понял, что никогда не сталкивался с таким сильным противником — древним и могущественным демоном, пришедшим из глубокого прошлого... Промедление в этой ситуации может привести к непоправимой трагедии, и доктор Эмбер без лишних раздумий добровольно помещает себя в кошмар с ужасающими последствиями…
Качество видео: BDRip 720p
Формат видео: MKV
Видео: MPEG-4 AVC, 1280x534, 5139 Kbit/s, 23.976 fps
Аудио: 48 kHz, AC3, 5.1, 384 Kbps | Дублированный | iTunes | RUS
Аудио 2: 48 kHz, AC3, 5.1, 640 Kbps | Оригинал | ENG

MediaInfo

General
Unique ID : 242125811704500247617561337350956094421 (0xB627BC2FFA338D7A9595B3F82B4993D5)
Complete name : F:VideoIncarnate.2016.BDRip.720p.ExKinoRay.mkv
Format : Matroska
Format version : Version 4 / Version 2
File size : 3.71 GiB
Duration : 1 h 26 min
Overall bit rate : 6 165 kb/s
Encoded date : UTC 2017-03-17 09:33:41
Writing application : mkvmerge v8.3.0 ('Over the Horizon') 64bit
Writing library : libebml v1.3.1 + libmatroska v1.4.2
Video
ID : 1
Format : AVC
Format/Info : Advanced Video Codec
Format profile : High@L4.1
Format settings, CABAC : Yes
Format settings, ReFrames : 10 frames
Codec ID : V_MPEG4/ISO/AVC
Duration : 1 h 26 min
Bit rate : 5 139 kb/s
Width : 1 280 pixels
Height : 534 pixels
Display aspect ratio : 2.40:1
Frame rate mode : Constant
Frame rate : 23.976 (24000/1001) FPS
Color space : YUV
Chroma subsampling : 4:2:0
Bit depth : 8 bits
Scan type : Progressive
Bits/(Pixel*Frame) : 0.314
Stream size : 3.09 GiB (83%)
Writing library : x264 core 148 r2638 7599210
Encoding settings : cabac=1 / ref=10 / deblock=1:-3:-3 / analyse=0x3:0x133 / me=umh / subme=10 / psy=1 / psy_rd=1.00:0.00 / mixed_ref=1 / me_range=32 / chroma_me=1 / trellis=2 / 8x8dct=1 / cqm=0 / deadzone=21,11 / fast_pskip=0 / chroma_qp_offset=-2 / threads=12 / lookahead_threads=2 / sliced_threads=0 / nr=0 / decimate=0 / interlaced=0 / bluray_compat=0 / constrained_intra=0 / bframes=8 / b_pyramid=2 / b_adapt=2 / b_bias=0 / direct=3 / weightb=1 / open_gop=0 / weightp=2 / keyint=240 / keyint_min=23 / scenecut=40 / intra_refresh=0 / rc_lookahead=60 / rc=crf / mbtree=0 / crf=16.8 / qcomp=0.60 / qpmin=0 / qpmax=69 / qpstep=4 / vbv_maxrate=62500 / vbv_bufsize=78125 / crf_max=0.0 / nal_hrd=none / filler=0 / ip_ratio=1.40 / pb_ratio=1.30 / aq=1:0.90
Language : English
Default : Yes
Forced : No
Audio #1
ID : 2
Format : AC-3
Format/Info : Audio Coding 3
Mode extension : CM (complete main)
Format settings, Endianness : Big
Codec ID : A_AC3
Duration : 1 h 26 min
Bit rate mode : Constant
Bit rate : 384 kb/s
Channel(s) : 6 channels
Channel positions : Front: L C R, Side: L R, LFE
Sampling rate : 48.0 kHz
Frame rate : 31.250 FPS (1536 spf)
Bit depth : 16 bits
Compression mode : Lossy
Stream size : 237 MiB (6%)
Title : iTunes
Language : Russian
Default : Yes
Forced : No
Audio #2
ID : 3
Format : AC-3
Format/Info : Audio Coding 3
Mode extension : CM (complete main)
Format settings, Endianness : Big
Codec ID : A_AC3
Duration : 1 h 26 min
Bit rate mode : Constant
Bit rate : 640 kb/s
Channel(s) : 6 channels
Channel positions : Front: L C R, Side: L R, LFE
Sampling rate : 48.0 kHz
Frame rate : 31.250 FPS (1536 spf)
Bit depth : 16 bits
Compression mode : Lossy
Stream size : 394 MiB (10%)
Title : Original
Language : English
Default : No
Forced : No
Menu
00:00:00.000 : en:00:00:00.000
00:06:08.910 : en:00:06:08.910
00:10:42.892 : en:00:10:42.892
00:14:44.466 : en:00:14:44.466
00:18:01.580 : en:00:18:01.580
00:22:12.789 : en:00:22:12.789
00:26:04.479 : en:00:26:04.479
00:29:52.707 : en:00:29:52.707
00:35:28.334 : en:00:35:28.334
00:40:51.449 : en:00:40:51.449
00:45:05.619 : en:00:45:05.619
00:49:24.962 : en:00:49:24.962
00:52:59.467 : en:00:52:59.467
00:56:32.305 : en:00:56:32.305
01:01:35.692 : en:01:01:35.692
01:06:31.362 : en:01:06:31.362
01:11:10.724 : en:01:11:10.724
01:18:54.729 : en:01:18:54.729

Скриншоты




Display posts:    

Current time is: 14-Dec 06:18

All times are UTC ± 0


You cannot post new topics in this forum
You cannot reply to topics in this forum
You cannot edit your posts in this forum
You cannot delete your posts in this forum
You cannot vote in polls in this forum
You cannot attach files in this forum
You cannot download files in this forum

!ATTENTION!
The site does not give electronic versions of products, and is engaged only in a collecting and cataloguing of the references sent and published at a forum by our readers. If you are the legal owner of any submitted material and do not wish that the reference to it was in our catalogue, contact us and we shall immediately remove her. Files for an exchange on tracker are given by users of a site, and the administration does not bear the responsibility for their maintenance. The request to not fill in the files protected by copyrights, and also files of the illegal maintenance!