[Цитировать]
RUS_D

Наиболее предпочтительный универсальный вариант — при помощи утилиты MediaInfo.-Для этого нужно скачать пакет кодеков с официально сайта, в который и входит MediaInfo: K-Lite Codec Pack-Сама утилита выглядит следующим образом:

...

Далее нажимаем на <Click here to select file>, открываем ваш видео файл и получаем текстовую информацию вида:

...

Параметры которые понадобятся для оформления раздачи, формат и продолжительность:
Ниже модно увидеть параметры, которые нам понадобятся для оформления, по видео потоку (кодек, битрейт, разрешение и т.п.):

...

Еще ниже можно увидеть параметры, которые нам понадобятся для оформления, по аудио потоку (кодек, битрейт и т.п.):

...

Если аудио дорожек несколько вы увидите информацию как Audio id:1,2,3 и т.д. Также может быть представлена информация о суббтитрах.
-При указании технических данных раздачи текстовый вывод MediaInfo можно включать в сообщение целиком (либо по требованию Модератора соответствующего раздела, при сомнении соответствия указанной информации по раздаваемому материалу), под спойлером. Особенно это актуально при раздаче HD-рипов (720p и 1080p).-Для это нужно сохранить информацию в текстовый файл, нажав на "Save to text file":

...

Выглядеть может вот так:

отчет MediaInfo

General
Complete name : H:\Фильмы\200mph.2011.P.HDRip.avi
Format : AVI
Format/Info : Audio Video Interleave
File size : 1.37 GiB
Duration : 1h 32mn
Overall bit rate : 2 122 Kbps
Writing application : VirtualDubMod 1.5.10.2 (build 2540/release)
Writing library : VirtualDubMod build 2540/release
Video
ID : 0
Format : MPEG-4 Visual
Format profile : Advanced Simple@L5
Format settings, BVOP : 4
Format settings, QPel : No
Format settings, GMC : 3 warppoints
Format settings, Matrix : Default (H.263)
Codec ID : XVID
Codec ID/Hint : XviD
Duration : 1h 32mn
Bit rate : 1 729 Kbps
Width : 720 pixels
Height : 400 pixels
Display aspect ratio : 16:9
Frame rate : 23.976 fps
Color space : YUV
Chroma subsampling : 4:2:0
Bit depth : 8 bits
Scan type : Progressive
Compression mode : Lossy
Bits/(Pixel*Frame) : 0.250
Stream size : 1.11 GiB (81%)
Writing library : XviD 1.2.1 (UTC 2008-12-04)
Audio
ID : 1
Format : AC-3
Format/Info : Audio Coding 3
Mode extension : CM (complete main)
Codec ID : 2000
Duration : 1h 32mn
Bit rate mode : Constant
Bit rate : 384 Kbps
Channel(s) : 6 channels
Channel positions : Front: L C R, Side: L R, LFE
Sampling rate : 48.0 KHz
Bit depth : 16 bits
Compression mode : Lossy
Delay relative to video : 40ms
Stream size : 253 MiB (18%)
Alignment : Split accross interleaves
Interleave, duration : 42 ms (1.00 video frame)
Interleave, preload duration : 500 ms
-Данную утилиту можно использовать для получения информации, практически о всех существующих форматах аудио и видео файлов.
Показать сообщения:    

Текущее время: 17-Ноя 21:29

Часовой пояс: UTC ± 0


Вы не можете начинать темы
Вы не можете отвечать на сообщения
Вы не можете редактировать свои сообщения
Вы не можете удалять свои сообщения
Вы не можете голосовать в опросах
Вы не можете прикреплять файлы к сообщениям
Вы не можете скачивать файлы

!ВНИМАНИЕ!
Сайт не предоставляет электронные версии произведений, а занимается лишь коллекционированием и каталогизацией ссылок, присылаемых и публикуемых на форуме нашими читателями. Если вы являетесь правообладателем какого-либо представленного материала и не желаете, чтобы ссылка на него находилась в нашем каталоге, свяжитесь с нами, и мы незамедлительно удалим ее. Файлы для обмена на трекере предоставлены пользователями сайта, и администрация не несет ответственности за их содержание. Просьба не заливать файлы, защищенные авторскими правами, а также файлы нелегального содержания!