DL-List and Torrent activity
None
 
   
 
 

[Quote]
CMIT

Закон ночи / Live by Night
Страна: США
Жанр: Драма, криминал
Год выпуска: 2016
Продолжительность: 02:08:49
Перевод: Профессиональный (дублированный) iTunes
Cубтитры: Русские (forced, full), украинские, английские
Оригинальная аудиодорожка: английский
Режиссер: Бен Аффлек
В ролях: Бен Аффлек, Элль Фэннинг, Ремо Джироне, Брендан Глисон, Роберт Гленистер, Мэттью Мехер, Крис Мессина, Сиенна Миллер, Мигель, Зои Салдана
Описание: Действие происходит в Америке времен сухого закона. Главный герой картины, сын полицейского, зарабатывает бутлегерством, в результате чего он оказывается вовлечен в жизнь криминального мира.
Качество видео: WEB-DL 1080p
Видео: MPEG-4 AVC, 1912x792, 4516 Kbit/s, 23.976 fps
Аудио: 48 kHz, AC3, 5.1, 384 Kbps | Дублированный | iTunes | RUS
Аудио 2: 48 kHz, AAC, 2.0, 125 Kbps | Дублированный | iTunes | UKR
Аудио 3: 48 kHz, AC3, 5.1, 384 Kbps | Оригинал | ENG

MediaInfo

General
Unique ID : 242364225893738608610039212365243442187 (0xB655A6EA1B8B12D492A4612F7F6B640B)
Complete name : F:VideoLive.by.Night.2016.D.WEB-DL.1080p.ExKinoRay.mkv
Format : Matroska
Format version : Version 4 / Version 2
File size : 4.87 GiB
Duration : 2 h 8 min
Overall bit rate : 5 412 kb/s
Encoded date : UTC 2017-03-08 20:38:31
Writing application : mkvmerge v8.3.0 ('Over the Horizon') 64bit
Writing library : libebml v1.3.1 + libmatroska v1.4.2
Video
ID : 1
Format : AVC
Format/Info : Advanced Video Codec
Format profile : High@L4
Format settings, CABAC : Yes
Format settings, ReFrames : 5 frames
Codec ID : V_MPEG4/ISO/AVC
Duration : 2 h 8 min
Bit rate : 4 516 kb/s
Width : 1 912 pixels
Height : 792 pixels
Display aspect ratio : 2.40:1
Frame rate mode : Constant
Frame rate : 23.976 (23976/1000) FPS
Color space : YUV
Chroma subsampling : 4:2:0
Bit depth : 8 bits
Scan type : Progressive
Bits/(Pixel*Frame) : 0.124
Stream size : 4.06 GiB (83%)
Language : English
Default : Yes
Forced : No
Color range : Limited
Color primaries : BT.709
Transfer characteristics : BT.709
Matrix coefficients : BT.709
Audio #1
ID : 2
Format : AC-3
Format/Info : Audio Coding 3
Mode extension : CM (complete main)
Format settings, Endianness : Big
Codec ID : A_AC3
Duration : 2 h 8 min
Bit rate mode : Constant
Bit rate : 384 kb/s
Channel(s) : 6 channels
Channel positions : Front: L C R, Side: L R, LFE
Sampling rate : 48.0 kHz
Frame rate : 31.250 FPS (1536 spf)
Bit depth : 16 bits
Compression mode : Lossy
Stream size : 354 MiB (7%)
Title : iTunes
Language : Russian
Default : Yes
Forced : No
Audio #2
ID : 3
Format : AC-3
Format/Info : Audio Coding 3
Mode extension : CM (complete main)
Format settings, Endianness : Big
Codec ID : A_AC3
Duration : 2 h 8 min
Bit rate mode : Constant
Bit rate : 384 kb/s
Channel(s) : 6 channels
Channel positions : Front: L C R, Side: L R, LFE
Sampling rate : 48.0 kHz
Frame rate : 31.250 FPS (1536 spf)
Bit depth : 16 bits
Compression mode : Lossy
Stream size : 354 MiB (7%)
Title : Original
Language : English
Default : No
Forced : No
Audio #3
ID : 4
Format : AAC
Format/Info : Advanced Audio Codec
Format profile : LC
Codec ID : A_AAC
Duration : 2 h 8 min
Bit rate : 125 kb/s
Channel(s) : 2 channels
Channel positions : Front: L R
Sampling rate : 44.1 kHz
Frame rate : 43.066 FPS (1024 spf)
Compression mode : Lossy
Stream size : 115 MiB (2%)
Title : iTunes
Language : Ukrainian
Default : No
Forced : No
Text #1
ID : 5
Format : UTF-8
Codec ID : S_TEXT/UTF8
Codec ID/Info : UTF-8 Plain Text
Duration : 1 h 57 min
Bit rate : 1 b/s
Count of elements : 25
Stream size : 1 019 Bytes (0%)
Title : Forced
Language : Russian
Default : Yes
Forced : No
Text #2
ID : 6
Format : UTF-8
Codec ID : S_TEXT/UTF8
Codec ID/Info : UTF-8 Plain Text
Duration : 2 h 8 min
Bit rate : 98 b/s
Count of elements : 1623
Stream size : 92.1 KiB (0%)
Title : Full
Language : Russian
Default : No
Forced : No
Text #3
ID : 7
Format : UTF-8
Codec ID : S_TEXT/UTF8
Codec ID/Info : UTF-8 Plain Text
Duration : 1 h 49 min
Bit rate : 1 b/s
Count of elements : 24
Stream size : 935 Bytes (0%)
Title : Full
Language : Ukrainian
Default : No
Forced : No
Text #4
ID : 8
Format : UTF-8
Codec ID : S_TEXT/UTF8
Codec ID/Info : UTF-8 Plain Text
Duration : 2 h 3 min
Bit rate : 66 b/s
Count of elements : 1898
Stream size : 60.3 KiB (0%)
Title : Full
Language : English
Default : No
Forced : No
Menu
00:00:00.000 : en:1
00:11:12.000 : en:2
00:20:26.000 : en:3
00:33:14.000 : en:4
00:43:33.000 : en:5
00:52:53.000 : en:6
01:02:26.000 : en:7
01:12:47.000 : en:8
01:24:12.000 : en:9
01:34:19.000 : en:10
01:38:15.000 : en:11
01:48:57.000 : en:12
01:53:29.000 : en:13
02:01:56.000 : en:14

Скриншоты





Display posts:    

Current time is: 05-Aug 00:35

All times are UTC ± 0


You cannot post new topics in this forum
You cannot reply to topics in this forum
You cannot edit your posts in this forum
You cannot delete your posts in this forum
You cannot vote in polls in this forum
You cannot attach files in this forum
You cannot download files in this forum

!ATTENTION!
The site does not give electronic versions of products, and is engaged only in a collecting and cataloguing of the references sent and published at a forum by our readers. If you are the legal owner of any submitted material and do not wish that the reference to it was in our catalogue, contact us and we shall immediately remove her. Files for an exchange on tracker are given by users of a site, and the administration does not bear the responsibility for their maintenance. The request to not fill in the files protected by copyrights, and also files of the illegal maintenance!