DL-List and Torrent activity
None
 
   
 
 

[Quote]
CMIT

Лови волну 2 / Surf's Up 2: WaveMania
Страна: США
Жанр: Мультфильм, комедия, семейный, спорт
Год выпуска: 2017
Продолжительность: 01:24:01
Перевод: Профессиональный (дублированный) iTunes
Cубтитры: русские
Режиссер: Генри Ю
В ролях: Джон Сина, Сарая-Джейд Бевис, Марк Колэуэй, Пол Левески, Винс МакМахон
Описание: Продолжение семейной анимационной комедии о целеустремленном пингвине-серфингисте Коди Маверике. Вместе с бесславной командой он отправляется на поиски таинственного побережья, где по легенде бушуют самые крутые волны в мире. Но способны ли они затмить всё то, что оставил Коди ради них?
Качество видео: WEB-DL 1080p
Формат видео: MKV
Видео: 1920x1080 (16:9), 23.976 fps, MPEG-4 AVC ~5255 kb/s, 0.106 bit/pixel
Аудио: RUS: AC3, 48 kHz, 6 ch, ~384.00 kbps avg
Аудио 2: ENG: AC3, 48 kHz, 6 ch, ~384.00 kbps avg

MediaInfo

Общее
Уникальный идентификатор : 229132757280079120628643456633229291531 (0xAC615D252E140EF3A9B0E9F6BF50300B)
Полное имя : D:192.168.1.30Surf.s.Up.2.Wave.Mania.2017.WEB-DL.1080p.mkv
Формат : Matroska
Версия формата : Version 4 / Version 2
Размер файла : 3,54 Гбайт
Продолжительность : 1 ч. 24 м.
Общий поток : 6025 Кбит/сек
Дата кодирования : UTC 2017-03-07 11:04:02
Программа кодирования : mkvmerge v8.3.0 ('Over the Horizon') 64bit
Библиотека кодирования : libebml v1.3.1 + libmatroska v1.4.2
Видео
Идентификатор : 1
Формат : AVC
Формат/Информация : Advanced Video Codec
Профиль формата : High@L4
Параметр CABAC формата : Да
Параметр ReFrames формата : 4 кадра
Идентификатор кодека : V_MPEG4/ISO/AVC
Продолжительность : 1 ч. 24 м.
Битрейт : 5255 Кбит/сек
Ширина : 1920 пикселей
Высота : 1080 пикселей
Соотношение сторон : 16:9
Режим частоты кадров : Постоянный
Частота кадров : 23,976 кадра/сек
Цветовое пространство : YUV
Субдискретизация насыщенности : 4:2:0
Битовая глубина : 8 бит
Тип развёртки : Прогрессивная
Бит/(Пиксели*Кадры) : 0.106
Размер потока : 3,08 Гбайт (87%)
Язык : English
Default : Да
Forced : Нет
Цветовой диапазон : Limited
Основные цвета : BT.709
Характеристики трансфера : BT.709
Коэффициенты матрицы : BT.709
Аудио #1
Идентификатор : 2
Формат : AC-3
Формат/Информация : Audio Coding 3
Расширение режима : CM (complete main)
Параметр Endianness формата : Big
Идентификатор кодека : A_AC3
Продолжительность : 1 ч. 24 м.
Вид битрейта : Постоянный
Битрейт : 384 Кбит/сек
Каналы : 6 каналов
Расположение каналов : Front: L C R, Side: L R, LFE
Частота : 48,0 КГц
Частота кадров : 31,250 кадров/сек (1536 spf)
Битовая глубина : 16 бит
Метод сжатия : С потерями
Размер потока : 231 Мбайт (6%)
Язык : Russian
Default : Да
Forced : Нет
Аудио #2
Идентификатор : 3
Формат : AC-3
Формат/Информация : Audio Coding 3
Расширение режима : CM (complete main)
Параметр Endianness формата : Big
Идентификатор кодека : A_AC3
Продолжительность : 1 ч. 24 м.
Вид битрейта : Постоянный
Битрейт : 384 Кбит/сек
Каналы : 6 каналов
Расположение каналов : Front: L C R, Side: L R, LFE
Частота : 48,0 КГц
Частота кадров : 31,250 кадров/сек (1536 spf)
Битовая глубина : 16 бит
Метод сжатия : С потерями
Размер потока : 231 Мбайт (6%)
Язык : English
Default : Нет
Forced : Нет
Текст #1
Идентификатор : 4
Формат : UTF-8
Идентификатор кодека : S_TEXT/UTF8
Идентификатор кодека/Информация : UTF-8 Plain Text
Продолжительность : 26 м. 0 с.
Битрейт : 2 бит/сек
Count of elements : 13
Размер потока : 582 байт (0%)
Заголовок : Fors
Язык : Russian
Default : Да
Forced : Нет
Текст #2
Идентификатор : 5
Формат : UTF-8
Идентификатор кодека : S_TEXT/UTF8
Идентификатор кодека/Информация : UTF-8 Plain Text
Продолжительность : 1 ч. 23 м.
Битрейт : 108 бит/сек
Count of elements : 1274
Размер потока : 66,2 Кбайт (0%)
Заголовок : Full
Язык : Russian
Default : Нет
Forced : Нет
Текст #3
Идентификатор : 6
Формат : UTF-8
Идентификатор кодека : S_TEXT/UTF8
Идентификатор кодека/Информация : UTF-8 Plain Text
Продолжительность : 1 ч. 23 м.
Битрейт : 72 бит/сек
Count of elements : 1259
Размер потока : 44,2 Кбайт (0%)
Заголовок : Full
Язык : English
Default : Нет
Forced : Нет
Меню
00:00:00.000 : en:1
00:04:24.305 : en:2
00:11:14.423 : en:3
00:15:06.446 : en:4
00:22:08.034 : en:5
00:25:49.714 : en:6
00:28:43.679 : en:7
00:35:39.469 : en:8
00:41:28.526 : en:9
00:46:50.514 : en:10
00:53:10.685 : en:11
00:55:56.934 : en:12
00:59:43.076 : en:13
01:04:50.425 : en:14
01:10:17.168 : en:15
01:15:44.537 : en:16

Скриншоты




Display posts:    

Current time is: 20-Jun 21:05

All times are UTC ± 0


You cannot post new topics in this forum
You cannot reply to topics in this forum
You cannot edit your posts in this forum
You cannot delete your posts in this forum
You cannot vote in polls in this forum
You cannot attach files in this forum
You cannot download files in this forum

!ATTENTION!
The site does not give electronic versions of products, and is engaged only in a collecting and cataloguing of the references sent and published at a forum by our readers. If you are the legal owner of any submitted material and do not wish that the reference to it was in our catalogue, contact us and we shall immediately remove her. Files for an exchange on tracker are given by users of a site, and the administration does not bear the responsibility for their maintenance. The request to not fill in the files protected by copyrights, and also files of the illegal maintenance!