DL-List and Torrent activity
None
 
   
 
 

[Quote]
CMIT

Обитель зла: Последняя глава / Resident Evil: The Final Chapter
Страна: Франция, Германия, Канада, Австралия
Жанр: Ужасы, фантастика, боевик, триллер
Год выпуска: 2016
Продолжительность: 01:47:02
Перевод: Любительский одноголосый (закадровый) | Solod
Cубтитры: английские
Оригинальная аудиодорожка: английский
Режиссер: Пол У. С. Андерсон
В ролях: Милла Йовович, Иэн Глен, Эли Лартер, Шон Робертс, Оуэн Мэкен, Фрайзер Джеймс, Руби Роуз, Уильям Леви, Рола, Эвер Андерсон
Описание: Действия фильма разворачиваются с того момента, на котором закончилась предыдущая часть. После того как Вескер предал Элис в Вашингтоне, конец истории человечества стал еще ближе. Элис — последняя надежда на спасение мира. Она должна вернуться к точке отсчета, туда, где все и началось — город Раккун-Сити, где корпорация «Амбрелла» готовится к финальной атаке по тем, кому удалось выжить. В гонке со временем Элис вооружится до зубов и объединится с друзьями и теми, кого не ожидала увидеть в роли своих союзников. Вместе они будут биться против армии мертвецов и новых чудовищных мутантов. Находясь под угрозой потери своих способностей и готовясь к неминуемой атаке корпорации, Элис столкнется с еще более трудными проблемами, а человечество тем временем будет находиться на грани гибели.
Качество видео: WEB-DL 1080p
Формат видео: MKV
Видео: MPEG-4 AVC, 1920x792, 4537 Mbit/s, 23.976 fps
Аудио: 48 kHz, AC3, 5.1, 384 Kbps | Solod | RUS
Аудио 2: 48 kHz, AC3, 5.1, 384 Kbps | Оригинал | ENG

MediaInfo

General
Unique ID : 183836886350602755290313974611062229639 (0x8A4DB24945D4EB649D3E903544030A87)
Complete name : F:VideoResident.Evil.The.Final.Chapter.2017.WEB-DL.1080p.ExKinoRay.mkv
Format : Matroska
Format version : Version 4 / Version 2
File size : 3.97 GiB
Duration : 1 h 47 min
Overall bit rate : 5 305 kb/s
Encoded date : UTC 2017-03-15 07:11:50
Writing application : mkvmerge v8.3.0 ('Over the Horizon') 64bit
Writing library : libebml v1.3.1 + libmatroska v1.4.2
Video
ID : 1
Format : AVC
Format/Info : Advanced Video Codec
Format profile : High@L4
Format settings, CABAC : Yes
Format settings, ReFrames : 5 frames
Codec ID : V_MPEG4/ISO/AVC
Duration : 1 h 47 min
Bit rate : 4 537 kb/s
Width : 1 920 pixels
Height : 792 pixels
Display aspect ratio : 2.40:1
Frame rate mode : Constant
Frame rate : 23.976 (23976/1000) FPS
Color space : YUV
Chroma subsampling : 4:2:0
Bit depth : 8 bits
Scan type : Progressive
Bits/(Pixel*Frame) : 0.124
Stream size : 3.39 GiB (86%)
Language : English
Default : Yes
Forced : No
Color range : Limited
Color primaries : BT.709
Transfer characteristics : BT.709
Matrix coefficients : BT.709
Audio #1
ID : 2
Format : AC-3
Format/Info : Audio Coding 3
Mode extension : CM (complete main)
Format settings, Endianness : Big
Codec ID : A_AC3
Duration : 1 h 46 min
Bit rate mode : Constant
Bit rate : 384 kb/s
Channel(s) : 6 channels
Channel positions : Front: L C R, Side: L R, LFE
Sampling rate : 48.0 kHz
Frame rate : 31.250 FPS (1536 spf)
Bit depth : 16 bits
Compression mode : Lossy
Stream size : 293 MiB (7%)
Title : VO [Solod]
Language : Russian
Default : Yes
Forced : No
Audio #2
ID : 3
Format : AC-3
Format/Info : Audio Coding 3
Mode extension : CM (complete main)
Format settings, Endianness : Big
Codec ID : A_AC3
Duration : 1 h 46 min
Bit rate mode : Constant
Bit rate : 384 kb/s
Channel(s) : 6 channels
Channel positions : Front: L C R, Side: L R, LFE
Sampling rate : 48.0 kHz
Frame rate : 31.250 FPS (1536 spf)
Bit depth : 16 bits
Compression mode : Lossy
Stream size : 293 MiB (7%)
Title : Original
Language : English
Default : No
Forced : No
Text
ID : 4
Format : UTF-8
Codec ID : S_TEXT/UTF8
Codec ID/Info : UTF-8 Plain Text
Duration : 1 h 38 min
Bit rate : 32 b/s
Count of elements : 706
Stream size : 23.3 KiB (0%)
Title : Full
Language : English
Default : No
Forced : No
Menu
00:00:00.000 : en:1
00:05:38.672 : en:2
00:11:17.177 : en:3
00:16:59.352 : en:4
00:22:35.229 : en:5
00:27:20.973 : en:6
00:33:37.557 : en:7
00:40:46.611 : en:8
00:46:35.209 : en:9
00:53:17.778 : en:10
01:03:17.711 : en:11
01:10:46.910 : en:12
01:15:36.574 : en:13
01:22:56.847 : en:14
01:28:31.890 : en:15
01:35:06.451 : en:16

Скриншоты





Display posts:    

Current time is: 24-Oct 00:54

All times are UTC ± 0


You cannot post new topics in this forum
You cannot reply to topics in this forum
You cannot edit your posts in this forum
You cannot delete your posts in this forum
You cannot vote in polls in this forum
You cannot attach files in this forum
You cannot download files in this forum

!ATTENTION!
The site does not give electronic versions of products, and is engaged only in a collecting and cataloguing of the references sent and published at a forum by our readers. If you are the legal owner of any submitted material and do not wish that the reference to it was in our catalogue, contact us and we shall immediately remove her. Files for an exchange on tracker are given by users of a site, and the administration does not bear the responsibility for their maintenance. The request to not fill in the files protected by copyrights, and also files of the illegal maintenance!