DL-List and Torrent activity
None
 
   
 
 

[Quote]
Magnat

Тайна дома с часами / The House with a Clock in Its Walls /- Страна: США Канада Индия
Производство: DreamWorks SKG, Amblin Entertainment, Mythology Entertainment
Год выпуска: 2018
Жанр: ужасы, фантастика, фэнтези, триллер, комедия, детектив, семейный
Продолжительность: 01:49:43
Режиссер: Элай Рот / Eli Roth
В ролях: Джек Блэк, Кейт Бланшетт, Оуэн Ваккаро, Кайл МакЛоклен, Рене Голдсберри, Коллин Кэмп, Санни Сулджик, Лоренца Иззо
Описание: Первое, что услышал Льюис, ступив на порог загадочного особняка своего дяди, — это тиканье часов, раздававшееся из древних стен. Он окунается в мир магии и колдовства, о существовании которого даже не подозревал. Здесь оживают картины, обитают невероятные создания, а сердце дома хранит тайну времени...
Перевод: Профессиональный (полное дублирование) | чистый звук (line)
Субтитры: нет-Качество: WEBRip 1080p
Формат: МР4
Видео кодек: AVC
Аудио кодек: ААС
Видео: 1920x1080 (16:9), 30.000 fps, MPEG-4 AVC ~6 169 kbps avg
Аудио: 44.1 kHz, Advanced Audio Codec, 2/0 (L,R) ch, ~129 kbps
Дата премьеры (мир): 19 сентября 2018
Дата премьеры (РФ): 27 сентября 2018, «UPI»

Media Info

General
Complete name : Тайна дома с часами (2018).mp4
Format : MPEG-4
Format profile : Base Media
Codec ID : isom (isom/iso2/avc1/mp41)
File size : 4.83 GiB
Duration : 1 h 49 min
Overall bit rate : 6 307 kb/s
Performer : Microsoft Game DVR
Writing application : Lavf56.40.101
Video
ID : 1
Format : AVC
Format/Info : Advanced Video Codec
Format profile : High@L4
Format settings, CABAC : Yes
Format settings, RefFrames : 2 frames
Codec ID : avc1
Codec ID/Info : Advanced Video Coding
Duration : 1 h 49 min
Bit rate : 6 169 kb/s
Width : 1 920 pixels
Height : 1 080 pixels
Display aspect ratio : 16:9
Frame rate mode : Constant
Frame rate : 30.000 FPS
Color space : YUV
Chroma subsampling : 4:2:0
Bit depth : 8 bits
Scan type : Progressive
Bits/(Pixel*Frame) : 0.099
Stream size : 4.73 GiB (98%)
Audio
ID : 2
Format : AAC
Format/Info : Advanced Audio Codec
Format profile : LC
Codec ID : 40
Duration : 1 h 49 min
Bit rate mode : Constant
Bit rate : 129 kb/s
Channel(s) : 2 channels
Channel positions : Front: L R
Sampling rate : 44.1 kHz
Frame rate : 43.066 FPS (1024 SPF)
Compression mode : Lossy
Stream size : 101 MiB (2%)
Default : Yes
Alternate group : 1

Скриншоты

Display posts:    

Current time is: 21-Oct 10:32

All times are UTC ± 0


You cannot post new topics in this forum
You cannot reply to topics in this forum
You cannot edit your posts in this forum
You cannot delete your posts in this forum
You cannot vote in polls in this forum
You cannot attach files in this forum
You cannot download files in this forum

!ATTENTION!
The site does not give electronic versions of products, and is engaged only in a collecting and cataloguing of the references sent and published at a forum by our readers. If you are the legal owner of any submitted material and do not wish that the reference to it was in our catalogue, contact us and we shall immediately remove her. Files for an exchange on tracker are given by users of a site, and the administration does not bear the responsibility for their maintenance. The request to not fill in the files protected by copyrights, and also files of the illegal maintenance!