DL-List and Torrent activity
None
 
   
 
 

[Quote]
Magnat

Офисный беспредел / Office Uprising /- Информация о фильме
Название: Офисный беспредел
Оригинальное название: Office Uprising
Год выхода: 2018
Жанр: Ужасы, комедия, боевик
Страна: США
Перевод: Дублированный | iTunes
Продолжительность: 01:24:59
Режиссер: Лин Одинг
В ролях: Брентон Туэйтс, Джейн Леви, Каран Сони, Закари Ливай, Грегг Генри, Курт Фуллер, Йен Хардинг, Сэм Дэйли, Алан Ричсон, Кори Уинстон и др.
О фильме: Глава крупной корпорации, мечтая о нечеловеческой работоспособности своих менеджеров, напоил их секретным энергетическим напитком. Однако босс не ожидал побочного эффекта — подчиненные стали гиперагрессивными. И лишь один раздолбай, как обычно опоздав на работу, остался без порции энергетика. Теперь ему предстоит пережить настоящий офисный беспредел…
Файл
Формат: MKV
Качество: WEB-DL 1080p
Видео: MPEG-4 AVC, 1920x806, 4541 kbps, 25,000 fps
Звук#1: русский, AC3, 5.1 ch, 48 kHz, 384 kbps | дубляж iTunes
Звук#2: украинский, AC3, 2.0 ch, 48 kHz, 192 kbps | дубляж iTunes
Звук#3: английский, AC3, 5.1 ch, 48 kHz, 384 kbps | оригинал
Субтитры: нет

MI

General
Уникальный идентификатор : 202354031709532688171403552973082600827 (0x983BF80A127208EEBC1FFF647270257B)
Полное имя : F:TorrentOfisnijBespredelWEB-DL1080p.mkv
Формат : Matroska
Версия формата : Version 4 / Version 2
Размер файла : 3.27 GiB
Продолжительность : 1 h 24 min
Общий поток : 5 503 kb/s
Дата кодирования : UTC 2018-09-05 09:59:36
Программа кодирования : mkvmerge v9.5.0 ('Quiet Fire') 64bit
Библиотека кодирования : libebml v1.3.4 + libmatroska v1.4.5
Video
Идентификатор : 1
Формат : AVC
Формат/Информация : Advanced Video Codec
Профиль формата : High@L4
Настройки формата : CABAC / 5 Ref Frames
Параметр CABAC формата : Yes
Параметр RefFrames формата : 5 frames
Идентификатор кодека : V_MPEG4/ISO/AVC
Продолжительность : 1 h 24 min
Битрейт : 4 541 kb/s
Ширина : 1 920 pixels
Высота : 806 pixels
Соотношение сторон : 2.40:1
Режим частоты кадров : Constant
Частота кадров : 25.000 FPS
Цветовое пространство : YUV
Субдискретизация насыщенности : 4:2:0
Битовая глубина : 8 bits
Тип развёртки : Progressive
Бит/(Пиксели*Кадры) : 0.117
Размер потока : 2.70 GiB (83%)
Язык : English
Default : Yes
Forced : No
Цветовой диапазон : Limited
Основные цвета : BT.709
Характеристики трансфера : BT.709
Коэффициенты матрицы : BT.709
Audio #1
Идентификатор : 2
Формат : AC-3
Формат/Информация : Audio Coding 3
Идентификатор кодека : A_AC3
Продолжительность : 1 h 24 min
Вид битрейта : Constant
Битрейт : 384 kb/s
Каналы : 6 channels
Расположение каналов : Front: L C R, Side: L R, LFE
Частота : 48.0 kHz
Частота кадров : 31.250 FPS (1536 SPF)
Битовая глубина : 16 bits
Метод сжатия : Lossy
Размер потока : 233 MiB (7%)
Язык : Russian
Default : Yes
Forced : No
Audio #2
Идентификатор : 3
Формат : AC-3
Формат/Информация : Audio Coding 3
Идентификатор кодека : A_AC3
Продолжительность : 1 h 24 min
Вид битрейта : Constant
Битрейт : 192 kb/s
Каналы : 2 channels
Расположение каналов : Front: L R
Частота : 48.0 kHz
Частота кадров : 31.250 FPS (1536 SPF)
Битовая глубина : 16 bits
Метод сжатия : Lossy
Размер потока : 117 MiB (3%)
Язык : Ukrainian
Default : No
Forced : No
Audio #3
Идентификатор : 4
Формат : AC-3
Формат/Информация : Audio Coding 3
Идентификатор кодека : A_AC3
Продолжительность : 1 h 24 min
Вид битрейта : Constant
Битрейт : 384 kb/s
Каналы : 6 channels
Расположение каналов : Front: L C R, Side: L R, LFE
Частота : 48.0 kHz
Частота кадров : 31.250 FPS (1536 SPF)
Битовая глубина : 16 bits
Метод сжатия : Lossy
Размер потока : 233 MiB (7%)
Язык : English
Default : No
Forced : No
Menu
00:00:00.000 : en:Глава 1
00:00:53.280 : en:Глава 2
00:08:07.080 : en:Глава 3
00:19:27.000 : en:Глава 4
00:25:33.520 : en:Глава 5
00:31:18.280 : en:Глава 6
00:36:09.520 : en:Глава 7
00:41:23.760 : en:Глава 8
00:45:16.200 : en:Глава 9
00:50:38.320 : en:Глава 10
00:55:12.400 : en:Глава 11
01:03:01.560 : en:Глава 12
01:06:36.160 : en:Глава 13
01:16:03.800 : en:Глава 14

Скриншоты


Display posts:    

Current time is: 23-Oct 23:42

All times are UTC ± 0


You cannot post new topics in this forum
You cannot reply to topics in this forum
You cannot edit your posts in this forum
You cannot delete your posts in this forum
You cannot vote in polls in this forum
You cannot attach files in this forum
You cannot download files in this forum

!ATTENTION!
The site does not give electronic versions of products, and is engaged only in a collecting and cataloguing of the references sent and published at a forum by our readers. If you are the legal owner of any submitted material and do not wish that the reference to it was in our catalogue, contact us and we shall immediately remove her. Files for an exchange on tracker are given by users of a site, and the administration does not bear the responsibility for their maintenance. The request to not fill in the files protected by copyrights, and also files of the illegal maintenance!