DL-List and Torrent activity
None
 
   
 
 

[Quote]
Magnat

- Поддержите девушек / Support the Girls /- Производство: США / Burn Later Productions
Жанр: Комедия
Режиссер: Эндрю Буджальски
Актеры: Реджина Холл, Хейли Лу Ричардсон, Дилан Гелула, Зои Грэм, Ann McCaskey, Elizabeth Trieu, Криста Хэйес, Victor Isaac Perez, Jesse Marshal, Луис Олмеда-Меньше всего на свете Лиза Конрой хочет руководить придорожной забегаловкой с полуголыми официантками. Тем не менее именно там она и работает, и со временем у неё получится полюбить ресторан и её странных клиентов.
Возраст: 16+ (зрителям, достигшим 16 лет)
Рейтинг MPAA: R (лицам до 17 лет обязательно присутствие взрослого)
Дата мировой премьеры: 9 марта 2018
Дата российской премьеры: Неизвестна
Продолжительность: 01:30:09
Качество видео: BDRemux
Перевод: Многоголосый закадровый, профессиональный
Субтитры: Английские
Видео: AVC/H.264, 1920x1080, ~24,9 Mbps
Аудио 01: AC3, 2 ch, 192 Kbps - Русский (MVO, HDRezka Studio)
Аудио 02: DTS-HD MA, 6 ch, 3300 Kbps - Английский

Mediainfo:

General
Unique ID : 38810901384043396283998018423800325842 (0x1D32B52CC5AC2A8728463DE3B3F5E6D2)
Complete name : G:\ФИЛЬМЫ\Support.the.Girls.2018.REMUX.mkv
Format : Matroska
Format version : Version 4 / Version 2
File size : 17.9 GiB
Duration : 1 h 30 min
Overall bit rate mode : Variable
Overall bit rate : 28.4 Mb/s
Encoded date : UTC 2018-12-13 10:54:33
Writing application : mkvmerge v20.0.0 ('I Am The Sun') 64-bit
Writing library : libebml v1.3.5 + libmatroska v1.4.8
Video
ID : 1
Format : AVC
Format/Info : Advanced Video Codec
Format profile : High@L4.1
Format settings : CABAC / 4 Ref Frames
Format settings, CABAC : Yes
Format settings, RefFrames : 4 frames
Format settings, GOP : M=1, N=12
Codec ID : V_MPEG4/ISO/AVC
Duration : 1 h 30 min
Bit rate mode : Variable
Bit rate : 24.9 Mb/s
Maximum bit rate : 35.0 Mb/s
Width : 1 920 pixels
Height : 1 080 pixels
Display aspect ratio : 16:9
Frame rate mode : Constant
Frame rate : 23.976 (24000/1001) FPS
Color space : YUV
Chroma subsampling : 4:2:0
Bit depth : 8 bits
Scan type : Progressive
Bits/(Pixel*Frame) : 0.500
Stream size : 15.7 GiB (88%)
Language : English
Default : Yes
Forced : No
Audio #1
ID : 2
Format : AC-3
Format/Info : Audio Coding 3
Codec ID : A_AC3
Duration : 1 h 30 min
Bit rate mode : Constant
Bit rate : 192 kb/s
Channel(s) : 2 channels
Channel positions : Front: L R
Sampling rate : 48.0 kHz
Frame rate : 31.250 FPS (1536 SPF)
Bit depth : 16 bits
Compression mode : Lossy
Stream size : 124 MiB (1%)
Language : Russian
Service kind : Complete Main
Default : Yes
Forced : No
Audio #2
ID : 3
Format : DTS
Format/Info : Digital Theater Systems
Format profile : MA / Core
Codec ID : A_DTS
Duration : 1 h 30 min
Bit rate mode : Variable / Constant
Bit rate : 3 300 kb/s / 1 509 kb/s
Channel(s) : 6 channels
Channel positions : Front: L C R, Side: L R, LFE
Sampling rate : 48.0 kHz
Frame rate : 93.750 FPS (512 SPF)
Bit depth : 24 bits
Compression mode : Lossless / Lossy
Stream size : 2.08 GiB (12%)
Language : English
Default : No
Forced : No
Text
ID : 4
Format : UTF-8
Codec ID : S_TEXT/UTF8
Codec ID/Info : UTF-8 Plain Text
Duration : 1 h 29 min
Bit rate : 85 b/s
Count of elements : 1533
Stream size : 55.9 KiB (0%)
Language : English
Default : No
Forced : No
Menu
00:00:00.000 : en:Chapter 01
00:08:21.792 : en:Chapter 02
00:14:03.801 : en:Chapter 03
00:22:42.986 : en:Chapter 04
00:30:02.926 : en:Chapter 05
00:39:14.769 : en:Chapter 06
00:46:20.235 : en:Chapter 07
00:52:40.240 : en:Chapter 08
01:01:18.800 : en:Chapter 09
01:09:00.094 : en:Chapter 10
01:15:25.771 : en:Chapter 11
01:22:51.466 : en:Chapter 12
Скриншоты:
Display posts:    

Current time is: 02-Dec 17:57

All times are UTC ± 0


You cannot post new topics in this forum
You cannot reply to topics in this forum
You cannot edit your posts in this forum
You cannot delete your posts in this forum
You cannot vote in polls in this forum
You cannot attach files in this forum
You cannot download files in this forum

!ATTENTION!
The site does not give electronic versions of products, and is engaged only in a collecting and cataloguing of the references sent and published at a forum by our readers. If you are the legal owner of any submitted material and do not wish that the reference to it was in our catalogue, contact us and we shall immediately remove her. Files for an exchange on tracker are given by users of a site, and the administration does not bear the responsibility for their maintenance. The request to not fill in the files protected by copyrights, and also files of the illegal maintenance!