DL-List and Torrent activity
None
 
   
 
 

[Quote]
Magnat

- Быть Астрид Линдгрен / Unga Astrid / Becoming Astrid/- Производство: Швеция, Дания
Жанр: драма, биография
Режиссер: Пернилла Фишер Кристенсен / Pernille Fischer Christensen
Актеры: Альба Аугуст, Трине Дюрхольм, Мария Бонневи, Эрик Эриксон, Бьёрн Густафссон, Магнус Креппер, Хенрик Рафаелсен, Мария Фал-Викандер, Ола Нормелли, Мадс Корсгаард, Лив Лемойн, Ли Бродхе, Петер Диаз, Ингрид Эриксон-Юная Астрид Линдгрен нарушила законы общества и следовала велению сердца. Ее ждали встречи и расставания, любовь и потери. Она подарила миру невероятные истории про Малыша и Карлсона, Пеппи Длинный Чулок, Эмиля из Лённеберги.
Возраст 16+ (зрителям, достигшим 16 лет)
Дата мировой премьеры: 21 февраля 2018
Дата российской премьеры: 22 ноября 2018, «Capella Film»
Дата выхода цифрового релиза: 14 декабря 2018, «Capella Film»
Продолжительность: 02:03:06
Качество видео: WEB-DL
Перевод: Многоголосый закадровый iTunes
Оригинальная аудиодорожка: нет
Субтитры: отсутствуют
Видео: MPEG-4, 1080p, 1920x806, ~4554 kbps
Аудио:1: AC3, 48000 Гц, 6ch, 384 kbps, Русский
Аудио:2: AAC, 48000 Гц, 2ch, 126 kbps, Русский

Mediainfo:

Общее
Полное имя : D:\...\Unga.Astrid.2018.WEB-DL.1080p.iTunes-ylnian.mkv
Формат : Matroska
Версия формата : Version 4
Размер файла : 4,36 Гбайт
Продолжительность : 2 ч. 3 м.
Общий поток : 5067 Кбит/сек
Название фильма : Unga.Astrid.2018.WEB-DL.1080p.iTunes-ylnian
Дата кодирования : UTC 2018-12-13 19:50:02
Программа кодирования : mkvmerge v29.0.0 ('Like It Or Not') 64-bit
Библиотека кодирования : libebml v1.3.6 + libmatroska v1.4.9
Видео
Идентификатор : 1
Формат : AVC
Формат/Информация : Advanced Video Codec
Профиль формата : High@L4
Настройки формата : CABAC / 5 Ref Frames
Параметр CABAC формата : Да
Параметр RefFrames формата : 5 кадров
Параметр GOP формата : N=1
Идентификатор кодека : V_MPEG4/ISO/AVC
Продолжительность : 2 ч. 3 м.
Битрейт : 4554 Кбит/сек
Ширина : 1920 пикселей
Высота : 806 пикселей
Соотношение сторон : 2,40:1
Режим частоты кадров : Постоянный
Частота кадров : 24,000 кадра/сек
Цветовое пространство : YUV
Субдискретизация насыщенности : 4:2:0
Битовая глубина : 8 бит
Тип развёртки : Прогрессивная
Бит/(Пиксели*Кадры) : 0.123
Размер потока : 3,92 Гбайт (90%)
Заголовок : Unga.Astrid.2018.WEB-DL.1080p.iTunes-ylnian
Язык : Swedish
Default : Да
Forced : Да
Цветовой диапазон : Limited
Основные цвета : BT.709
Характеристики трансфера : BT.709
Коэффициенты матрицы : BT.709
Аудио #1
Идентификатор : 2
Формат : AC-3
Формат/Информация : Audio Coding 3
Коммерческое название : Dolby Digital
Идентификатор кодека : A_AC3
Продолжительность : 2 ч. 3 м.
Вид битрейта : Постоянный
Битрейт : 384 Кбит/сек
Каналы : 6 каналов
Channel layout : L R C LFE Ls Rs
Частота : 48,0 КГц
Частота кадров : 31,250 кадров/сек (1536 SPF)
Битовая глубина : 16 бит
Метод сжатия : С потерями
Размер потока : 338 Мбайт (8%)
Заголовок : AC3
Язык : Russian
ServiceKind/String : Complete Main
Default : Да
Forced : Да
Аудио #2
Идентификатор : 3
Формат : AAC LC
Формат/Информация : Advanced Audio Codec Low Complexity
Идентификатор кодека : A_AAC-2
Продолжительность : 2 ч. 3 м.
Битрейт : 126 Кбит/сек
Каналы : 2 канала
Channel layout : L R
Частота : 48,0 КГц
Частота кадров : 46,875 кадров/сек (1024 SPF)
Метод сжатия : С потерями
Размер потока : 111 Мбайт (2%)
Заголовок : AAC
Язык : Russian
Default : Нет
Forced : Нет
Меню
00:00:00.000 : sv:1
00:03:04.708 : sv:2
00:08:59.874 : sv:3
00:15:28.499 : sv:4
00:21:44.499 : sv:5
00:26:05.707 : sv:6
00:33:34.665 : sv:7
00:41:06.040 : sv:8
00:50:55.248 : sv:9
00:58:59.206 : sv:10
01:06:23.789 : sv:11
01:16:11.914 : sv:12
01:25:38.664 : sv:13
01:30:34.080 : sv:14
01:37:17.830 : sv:15
01:42:51.246 : sv:16
01:50:28.329 : sv:17
01:55:48.954 : sv:18
Скриншоты:
Display posts:    

Current time is: 16-Jan 08:56

All times are UTC ± 0


You cannot post new topics in this forum
You cannot reply to topics in this forum
You cannot edit your posts in this forum
You cannot delete your posts in this forum
You cannot vote in polls in this forum
You cannot attach files in this forum
You cannot download files in this forum

!ATTENTION!
The site does not give electronic versions of products, and is engaged only in a collecting and cataloguing of the references sent and published at a forum by our readers. If you are the legal owner of any submitted material and do not wish that the reference to it was in our catalogue, contact us and we shall immediately remove her. Files for an exchange on tracker are given by users of a site, and the administration does not bear the responsibility for their maintenance. The request to not fill in the files protected by copyrights, and also files of the illegal maintenance!