DL-List and Torrent activity
None
 
   
 
 

[Quote]
Magnat

-Ураган / Hurricane/- Производство: Великобритания, Польша / Head Gear Films, Metrol Technology, Prospect 3
Жанр: Драма, Военный
Режиссер: Дэвид Блэр
Актеры: Иван Реон, Майло Гибсон, Стефани Мартини, Марчин Дорочиньский, Криштоф Гадек, Род Артур, Дэн Бурман, Дрю Кэйн-История польского пилота Яна Зумбаха, который вступает в ряды британских ВВС, чтобы дать финальный отпор летчику люфтваффе и предотвратить вторжение в Великобританию.
Основано на реальных событиях.
Дата мировой премьеры: 9 августа 2018
Дата российской премьеры: неизвестна
Продолжительность: 01:47:39
Качество видео: BDRip
Перевод: Многоголосый закадровый, профессиональный (HDRezka Studio)
Субтитры: Русские (forced), Английские
Видео: AVC/H.264, 1024x428, ~1784 Kbps
Аудио #1: AC3, 2 ch, 192 Kbps | русский, многоголосый закадровый
Аудио #2: AC3, 6 ch, 448 Kbps | английский

Mediainfo:

Общее
Уникальный идентификатор : 170207356165466500048421337520748020092 (0x800CBE90F59DEE633CE153ABF3FAC17C)
Полное имя : C:\Users\User\Desktop\NNMClub\Hurricane.2018.BDRip.mkv
Формат : Matroska
Версия формата : Version 4
Размер файла : 1,82 Гбайт
Продолжительность : 1 ч. 47 м.
Общий поток : 2421 Кбит/сек
Название фильма : Hurricane.2018 #TorpedoUK#
Дата кодирования : UTC 2018-12-13 10:57:40
Программа кодирования : mkvmerge v29.0.0 ('Like It Or Not') 64-bit
Библиотека кодирования : libebml v1.3.6 + libmatroska v1.4.9
Обложка : Yes
Attachments : Cover - Hurricane.png
Видео
Идентификатор : 1
Формат : AVC
Формат/Информация : Advanced Video Codec
Профиль формата : High@L4.1
Настройки формата : CABAC / 10 Ref Frames
Параметр CABAC формата : Да
Параметр RefFrames формата : 10 кадров
Идентификатор кодека : V_MPEG4/ISO/AVC
Продолжительность : 1 ч. 47 м.
Битрейт : 1784 Кбит/сек
Ширина : 1024 пикселя
Высота : 428 пикселей
Соотношение сторон : 2,40:1
Режим частоты кадров : Постоянный
Частота кадров : 24,000 кадра/сек
Цветовое пространство : YUV
Субдискретизация насыщенности : 4:2:0
Битовая глубина : 8 бит
Тип развёртки : Прогрессивная
Бит/(Пиксели*Кадры) : 0.170
Размер потока : 1,34 Гбайт (73%)
Библиотека кодирования : x264 core 146 r2538 121396c
Настройки программы : cabac=1 / ref=10 / deblock=1:-2:-3 / analyse=0x3:0x113 / me=umh / subme=11 / psy=1 / psy_rd=0.95:0.07 / mixed_ref=1 / me_range=48 / chroma_me=1 / trellis=2 / 8x8dct=1 / cqm=0 / deadzone=21,11 / fast_pskip=1 / chroma_qp_offset=-3 / threads=6 / lookahead_threads=1 / sliced_threads=0 / nr=0 / decimate=1 / interlaced=0 / bluray_compat=0 / constrained_intra=0 / bframes=11 / b_pyramid=2 / b_adapt=2 / b_bias=0 / direct=3 / weightb=1 / open_gop=0 / weightp=2 / keyint=240 / keyint_min=24 / scenecut=40 / intra_refresh=0 / rc_lookahead=40 / rc=2pass / mbtree=0 / bitrate=1784 / ratetol=1.0 / qcomp=0.60 / qpmin=0 / qpmax=69 / qpstep=4 / cplxblur=20.0 / qblur=0.5 / vbv_maxrate=50000 / vbv_bufsize=62500 / nal_hrd=none / filler=0 / ip_ratio=1.40 / pb_ratio=1.30 / aq=1:1.00
Язык : English
Default : Да
Forced : Нет
Аудио #1
Идентификатор : 2
Формат : AC-3
Формат/Информация : Audio Coding 3
Коммерческое название : Dolby Digital
Идентификатор кодека : A_AC3
Продолжительность : 1 ч. 47 м.
Вид битрейта : Постоянный
Битрейт : 192 Кбит/сек
Каналы : 2 канала
Channel layout : L R
Частота : 48,0 КГц
Частота кадров : 31,250 кадров/сек (1536 SPF)
Битовая глубина : 16 бит
Метод сжатия : С потерями
Размер потока : 148 Мбайт (8%)
Заголовок : MVO [HDRezka Studio]
Язык : Russian
ServiceKind/String : Complete Main
Default : Да
Forced : Нет
Аудио #2
Идентификатор : 3
Формат : AC-3
Формат/Информация : Audio Coding 3
Коммерческое название : Dolby Digital
Идентификатор кодека : A_AC3
Продолжительность : 1 ч. 47 м.
Вид битрейта : Постоянный
Битрейт : 448 Кбит/сек
Каналы : 6 каналов
Channel layout : L R C LFE Ls Rs
Частота : 48,0 КГц
Частота кадров : 31,250 кадров/сек (1536 SPF)
Битовая глубина : 16 бит
Метод сжатия : С потерями
Размер потока : 345 Мбайт (19%)
Заголовок : [Original]
Язык : English
ServiceKind/String : Complete Main
Default : Нет
Forced : Нет
Текст #1
Идентификатор : 4
Формат : UTF-8
Идентификатор кодека : S_TEXT/UTF8
Идентификатор кодека/Информация : UTF-8 Plain Text
Продолжительность : 1 ч. 28 м.
Битрейт : 4 бит/сек
ElementCount : 77
Размер потока : 2,96 Кбайт (0%)
Заголовок : Forced
Язык : Russian
Default : Да
Forced : Нет
Текст #2
Идентификатор : 5
Формат : UTF-8
Идентификатор кодека : S_TEXT/UTF8
Идентификатор кодека/Информация : UTF-8 Plain Text
Продолжительность : 1 ч. 40 м.
Битрейт : 34 бит/сек
ElementCount : 671
Размер потока : 25,4 Кбайт (0%)
Заголовок : Full
Язык : English
Default : Нет
Forced : Нет
Меню
00:00:00.000 : en:Chapter 01
00:09:16.666 : en:Chapter 02
00:17:38.125 : en:Chapter 03
00:28:06.500 : en:Chapter 04
00:38:33.416 : en:Chapter 05
00:44:07.166 : en:Chapter 06
00:53:05.541 : en:Chapter 07
01:00:42.708 : en:Chapter 08
01:08:58.166 : en:Chapter 09
01:18:09.583 : en:Chapter 10
01:25:20.041 : en:Chapter 11
01:35:42.208 : en:Chapter 12
Скриншоты:
Display posts:    

Current time is: 23-May 07:12

All times are UTC ± 0


You cannot post new topics in this forum
You cannot reply to topics in this forum
You cannot edit your posts in this forum
You cannot delete your posts in this forum
You cannot vote in polls in this forum
You cannot attach files in this forum
You cannot download files in this forum

!ATTENTION!
The site does not give electronic versions of products, and is engaged only in a collecting and cataloguing of the references sent and published at a forum by our readers. If you are the legal owner of any submitted material and do not wish that the reference to it was in our catalogue, contact us and we shall immediately remove her. Files for an exchange on tracker are given by users of a site, and the administration does not bear the responsibility for their maintenance. The request to not fill in the files protected by copyrights, and also files of the illegal maintenance!