Статистика раздачи
Нет
 
   
 
 

[Цитировать]
Magnat

-Человек на Луне / First Man/ - Производство: США, Япония, Amblin Entertainment, DreamWorks SKG, Perfect World Pictures, Temple Hill Entertainment, Universal Pictures
Жанр: Драма, Биография, История
Режиссер: Дэмьен Шазелл
Продюсер: Марти Бауэн, Дэмьен Шазелл, Кевин Елам
Актеры: Райан Гослинг, Клер Фой, Джейсон Кларк, Кайл Чандлер, Кори Столл, Патрик Фьюджит, Кристофер Эбботт, Киран Хайндс, Оливия Хэмилтон, Пабло Шрайбер-Судьба любит смельчаков, а Нил Армстронг однозначно принадлежит к их числу. Весь мир знает его имя, но мало кому известно, какой ценой астронавту дался маленький шаг, ставший огромным скачком для всего человечества.
Возраст: 12+ (зрителям, достигшим 12 лет)
Рейтинг MPAA: PG-13 (детям до 13 лет просмотр нежелателен)
Дата мировой премьеры: 29 августа 2018
Дата премьеры в России: 11 октября 2018, «UPI»

Продолжительность: 02:21:00
Качество видео: WEB-DL
Перевод: Дублированный (iTunes)
Субтитры: Русские (вшитые) хардсаб
Видео: AVC/H.264, 1916x796 (2.40:1), 4493 kbps, 23.976 fps
Аудио »1: АС3, 6 ch, 48 kHz, 384 Kbps | Русский
Аудио »2: АС3, 2 ch, 48 kHz, 192 Kbps | Английский

MediaInfo:

Общее
Уникальный идентификатор : 242209972671455698724180009169421379134 (0xB637F1A4B8FAD15C914566AB6DBCA63E)
Полное имя : D:\Человек.на.Луне.2018.WEB-DL.[1080p].NNMClub.mkv
Формат : Matroska
Версия формата : Version 2
Размер файла : 5,09 Гбайт
Продолжительность : 2 ч. 21 м.
Общий поток : 5172 Кбит/сек
Название фильма : Человек.на.Луне.2018.WEB-DL.[1080p].NNMClub
Дата кодирования : UTC 2018-12-12 21:45:07
Программа кодирования : mkvmerge v8.3.0 ('Over the Horizon') 64bit
Библиотека кодирования : libebml v1.3.1 + libmatroska v1.4.2
Видео
Идентификатор : 1
Формат : AVC
Формат/Информация : Advanced Video Codec
Профиль формата : High@L4
Настройки формата : CABAC / 5 Ref Frames
Параметр CABAC формата : Да
Параметр RefFrames формата : 5 кадров
Идентификатор кодека : V_MPEG4/ISO/AVC
Продолжительность : 2 ч. 21 м.
Битрейт : 4493 Кбит/сек
Ширина : 1916 пикселей
Высота : 796 пикселей
Соотношение сторон : 2,40:1
Режим частоты кадров : Постоянный
Частота кадров : 23,976 кадра/сек
Цветовое пространство : YUV
Субдискретизация насыщенности : 4:2:0
Битовая глубина : 8 бит
Тип развёртки : Прогрессивная
Бит/(Пиксели*Кадры) : 0.123
Размер потока : 4,43 Гбайт (87%)
Язык : English
Default : Да
Forced : Нет
Цветовой диапазон : Limited
Основные цвета : BT.709
Характеристики трансфера : BT.709
Коэффициенты матрицы : BT.709
Аудио #1
Идентификатор : 2
Формат : AC-3
Формат/Информация : Audio Coding 3
Коммерческое название : Dolby Digital
Идентификатор кодека : A_AC3
Продолжительность : 2 ч. 21 м.
Вид битрейта : Постоянный
Битрейт : 384 Кбит/сек
Каналы : 6 каналов
Channel layout : L R C LFE Ls Rs
Частота : 48,0 КГц
Частота кадров : 31,250 кадров/сек (1536 SPF)
Битовая глубина : 16 бит
Метод сжатия : С потерями
Размер потока : 387 Мбайт (7%)
Заголовок : iTunes
Язык : Russian
ServiceKind/String : Complete Main
Default : Да
Forced : Нет
Аудио #2
Идентификатор : 3
Формат : AC-3
Формат/Информация : Audio Coding 3
Коммерческое название : Dolby Digital
Идентификатор кодека : A_AC3
Продолжительность : 2 ч. 21 м.
Вид битрейта : Постоянный
Битрейт : 192 Кбит/сек
Каналы : 2 канала
Channel layout : L R
Частота : 48,0 КГц
Частота кадров : 31,250 кадров/сек (1536 SPF)
Битовая глубина : 16 бит
Метод сжатия : С потерями
Размер потока : 194 Мбайт (4%)
Заголовок : Original
Язык : English
ServiceKind/String : Complete Main
Default : Нет
Forced : Нет
Меню
00:00:00.000 : en:1
00:07:21.441 : en:2
00:13:36.983 : en:3
00:19:54.193 : en:4
00:26:00.726 : en:5
00:31:31.139 : en:6
00:40:18.249 : en:7
00:49:58.704 : en:8
01:00:03.934 : en:9
01:05:43.398 : en:10
01:11:06.721 : en:11
01:15:13.968 : en:12
01:21:33.889 : en:13
01:30:36.306 : en:14
01:39:01.728 : en:15
01:48:59.492 : en:16
01:54:45.421 : en:17
02:00:15.918 : en:18
02:09:56.707 : en:19
02:14:03.745 : en:20
Скриншоты:
Показать сообщения:    

Текущее время: 22-Янв 05:06

Часовой пояс: UTC ± 0


Вы не можете начинать темы
Вы не можете отвечать на сообщения
Вы не можете редактировать свои сообщения
Вы не можете удалять свои сообщения
Вы не можете голосовать в опросах
Вы не можете прикреплять файлы к сообщениям
Вы не можете скачивать файлы

!ВНИМАНИЕ!
Сайт не предоставляет электронные версии произведений, а занимается лишь коллекционированием и каталогизацией ссылок, присылаемых и публикуемых на форуме нашими читателями. Если вы являетесь правообладателем какого-либо представленного материала и не желаете, чтобы ссылка на него находилась в нашем каталоге, свяжитесь с нами, и мы незамедлительно удалим ее. Файлы для обмена на трекере предоставлены пользователями сайта, и администрация не несет ответственности за их содержание. Просьба не заливать файлы, защищенные авторскими правами, а также файлы нелегального содержания!