Статистика раздачи
Скачал: [ 1 ]
 
   
 
 

[Цитировать]
Magnat

- Девочка и робот / Mail Order Monster/ - Производство: США / Jax Productions, Stay Relevant Productions
Жанр: Фантастика, Драма, Семейный
Режиссер: Паулина Лагуди
Актеры: Чаризма Карпентер, Джош Хопкинс, Эмма Рэйн Лайл, Билл Билльонс, Лиа Хаттон Бисмор, Мэдисон Хорчер, Карен Б. Грир, Ронни Л. Клири, Аллен Хоган, Хлоя Грейс Льючик-Мама Сэм погибает в автоаварии, и девочка замыкается в себе и становится объектом насмешек одноклассников. Она собирает робота из набора, чтобы он защитил ее от злых языков и новой папиной подружки.
Дата мировой премьеры: 6 ноября 2018
Продолжительность: 01:29:06
Качество видео: WEB-DLRip
Перевод: Двуголосый закадровый, любительский
Озвучка / Автор перевода: HiWayGrope
Субтитры: Отсутствуют
Видео: Xvid, 720x400, ~1791 Kbps
Аудио 1: AC3, 2 ch, 192 Kbps | русский
Аудио 2: AC3, 6 ch, 384 Kbps | английский

Mediainfo:

Общее
Полное имя : D:\FILMЬl\Mail Order Monster 2018.avi
Формат : AVI
Формат/Информация : Audio Video Interleave
Размер файла : 1,48 Гбайт
Продолжительность : 1 ч. 29 м.
Общий поток : 2381 Кбит/сек
Название фильма : Mail.Order.Monster.2018.WEB-DL.XviD.AC3-FGT
Программа кодирования : VirtualDubMod 1.10.5ru (build 2550/release)
Библиотека кодирования : VirtualDubMod build 2550/release
Примечание : Mail.Order.Monster.2018.WEB-DL.XviD.AC3-FGT
Видео
Идентификатор : 0
Формат : MPEG-4 Visual
Профиль формата : Simple@L5
Параметр BVOP формата : Нет
Параметр QPel формата : Нет
Параметр GMC формата : Без точки перехода
Параметр матрицы формата : Default (H.263)
Идентификатор кодека : XVID
Идентификатор кодека/Подсказка : XviD
Продолжительность : 1 ч. 29 м.
Битрейт : 1791 Кбит/сек
Ширина : 720 пикселей
Высота : 400 пикселей
Соотношение сторон : 16:9
Частота кадров : 23,976 (24000/1001) кадра/сек
Цветовое пространство : YUV
Субдискретизация насыщенности : 4:2:0
Битовая глубина : 8 бит
Тип развёртки : Прогрессивная
Метод сжатия : С потерями
Бит/(Пиксели*Кадры) : 0.259
Размер потока : 1,11 Гбайт (75%)
Библиотека кодирования : Lavc58.1.100
Аудио #1
Идентификатор : 1
Формат : AC-3
Формат/Информация : Audio Coding 3
Коммерческое название : Dolby Digital
Идентификатор кодека : 2000
Продолжительность : 1 ч. 29 м.
Вид битрейта : Постоянный
Битрейт : 192 Кбит/сек
Каналы : 2 канала
Channel layout : L R
Частота : 48,0 КГц
Частота кадров : 31,250 кадров/сек (1536 SPF)
Битовая глубина : 16 бит
Метод сжатия : С потерями
Размер потока : 122 Мбайт (8%)
Выравнивание : Разделение по промежуткам
Продолжительность промежутка : 42 мс. (1,00 видеокадр)
Время предзагрузки промежутка : 500 мс.
ServiceKind/String : Complete Main
Аудио #2
Идентификатор : 2
Формат : AC-3
Формат/Информация : Audio Coding 3
Коммерческое название : Dolby Digital
Идентификатор кодека : 2000
Продолжительность : 1 ч. 29 м.
Вид битрейта : Постоянный
Битрейт : 384 Кбит/сек
Каналы : 6 каналов
Channel layout : L R C LFE Ls Rs
Частота : 48,0 КГц
Частота кадров : 31,250 кадров/сек (1536 SPF)
Битовая глубина : 16 бит
Метод сжатия : С потерями
Размер потока : 245 Мбайт (16%)
Выравнивание : Соединение по промежуткам
Продолжительность промежутка : 42 мс. (1,00 видеокадр)
Время предзагрузки промежутка : 512 мс.
ServiceKind/String : Complete Main
Скриншоты:
Показать сообщения:    

Текущее время: 22-Янв 04:56

Часовой пояс: UTC ± 0


Вы не можете начинать темы
Вы не можете отвечать на сообщения
Вы не можете редактировать свои сообщения
Вы не можете удалять свои сообщения
Вы не можете голосовать в опросах
Вы не можете прикреплять файлы к сообщениям
Вы не можете скачивать файлы

!ВНИМАНИЕ!
Сайт не предоставляет электронные версии произведений, а занимается лишь коллекционированием и каталогизацией ссылок, присылаемых и публикуемых на форуме нашими читателями. Если вы являетесь правообладателем какого-либо представленного материала и не желаете, чтобы ссылка на него находилась в нашем каталоге, свяжитесь с нами, и мы незамедлительно удалим ее. Файлы для обмена на трекере предоставлены пользователями сайта, и администрация не несет ответственности за их содержание. Просьба не заливать файлы, защищенные авторскими правами, а также файлы нелегального содержания!