Статистика раздачи
Скачал: [ 2 ]
 
   
 
 

[Цитировать]
Magnat

-Поезд на Париж / The 15:17 to Paris- Производство: США / Malpaso Productions, Village Roadshow Pictures, Warner Bros. Pictures
Жанр: Триллер, драма, история
Режиссер: Клинт Иствуд
Актеры: Спенсер Стоун, Энтони Сэдлер, Алек Скарлатос, Джуди Грир, Дженна Фишер, Рэй Корасани, Тони Хейл, Томас Леннон, Синква Уоллс, Лиллиэн Соланж Бодуан-В центре сюжета события, произошедшие ранним вечером 21 августа 2015 года, когда весь мир, затаив дыхание, наблюдал за предотвращением террористической атаки в скоростном поезде N 9364. Террорист из Марокко с автоматом и большим количеством боеприпасов открыл в поезде стрельбу с целью убить более пятисот человек.
Фильм основан на реальных событиях.
Рейтинг MPAA: PG-13 (детям до 13 лет просмотр нежелателен)
Дата мировой премьеры: 7 февраля 2018
Цифровой релиз: 3 мая 2018

Продолжительность: 01:33:47
Качество видео: WEB-DL
Перевод: Дублированный (iTunes)
Субтитры: Русские (Full)
Видео: AVC/H.264, 1920x804, ~4539 Kbps
Аудио #1: AC-3, 6 ch, 384 Kbps | Русский
Аудио #2: AC-3, 6 ch, 384 Kbps | Английский

MediaInfo:

Общее
Уникальный идентификатор : 214037377048747331040015470819455210249 (0xA1061970282A2A01A9FAB42465831309)
Полное имя : E:\NNM\Поезд на Париж\The 15_17 to Paris WEB-DL 1080p-LQ.mkv
Формат : Matroska
Версия формата : Version 4 / Version 2
Размер файла : 3,48 Гбайт
Продолжительность : 1 ч. 33 м.
Общий поток : 5309 Кбит/сек
Дата кодирования : UTC 2018-05-03 07:38:29
Программа кодирования : mkvmerge v9.5.0 ('Quiet Fire') 64bit
Библиотека кодирования : libebml v1.3.4 + libmatroska v1.4.5
Видео
Идентификатор : 3
Формат : AVC
Формат/Информация : Advanced Video Codec
Профиль формата : High@L4.1
Настройки формата : CABAC / 5 Ref Frames
Параметр CABAC формата : Да
Параметр RefFrames формата : 5 кадров
Идентификатор кодека : V_MPEG4/ISO/AVC
Продолжительность : 1 ч. 33 м.
Битрейт : 4539 Кбит/сек
Ширина : 1920 пикселей
Высота : 804 пикселя
Соотношение сторон : 2,40:1
Режим частоты кадров : Постоянный
Частота кадров : 23,976 кадра/сек
Цветовое пространство : YUV
Субдискретизация насыщенности : 4:2:0
Битовая глубина : 8 бит
Тип развёртки : Прогрессивная
Бит/(Пиксели*Кадры) : 0.123
Размер потока : 2,97 Гбайт (85%)
Язык : English
Default : Да
Forced : Нет
Цветовой диапазон : Limited
Основные цвета : BT.709
Характеристики трансфера : BT.709
Коэффициенты матрицы : BT.709
Аудио #1
Идентификатор : 1
Формат : AC-3
Формат/Информация : Audio Coding 3
Идентификатор кодека : A_AC3
Продолжительность : 1 ч. 33 м.
Вид битрейта : Постоянный
Битрейт : 384 Кбит/сек
Каналы : 6 каналов
Расположение каналов : Front: L C R, Side: L R, LFE
Частота : 48,0 КГц
Частота кадров : 31,250 кадров/сек (1536 SPF)
Битовая глубина : 16 бит
Метод сжатия : С потерями
Размер потока : 258 Мбайт (7%)
Язык : Russian
ServiceKind/String : Complete Main
Default : Да
Forced : Нет
Аудио #2
Идентификатор : 2
Формат : AC-3
Формат/Информация : Audio Coding 3
Идентификатор кодека : A_AC3
Продолжительность : 1 ч. 33 м.
Вид битрейта : Постоянный
Битрейт : 384 Кбит/сек
Каналы : 6 каналов
Расположение каналов : Front: L C R, Side: L R, LFE
Частота : 48,0 КГц
Частота кадров : 31,250 кадров/сек (1536 SPF)
Битовая глубина : 16 бит
Метод сжатия : С потерями
Размер потока : 258 Мбайт (7%)
Язык : English
ServiceKind/String : Complete Main
Default : Нет
Forced : Нет
Текст
Идентификатор : 4
Формат : UTF-8
Идентификатор кодека : S_TEXT/UTF8
Идентификатор кодека/Информация : UTF-8 Plain Text
Продолжительность : 1 ч. 31 м.
Битрейт : 100 бит/сек
ElementCount : 1484
Размер потока : 67,7 Кбайт (0%)
Язык : Russian
Default : Да
Forced : Нет
Меню
00:00:00.000 : en:1
00:09:48.000 : en:2
00:19:19.000 : en:3
00:30:46.000 : en:4
00:43:57.000 : en:5
00:52:47.000 : en:6
01:04:19.000 : en:7
01:11:49.000 : en:8
01:21:42.000 : en:9
01:26:56.000 : en:10
Скриншоты:
Показать сообщения:    

Текущее время: 22-Янв 04:14

Часовой пояс: UTC ± 0


Вы не можете начинать темы
Вы не можете отвечать на сообщения
Вы не можете редактировать свои сообщения
Вы не можете удалять свои сообщения
Вы не можете голосовать в опросах
Вы не можете прикреплять файлы к сообщениям
Вы не можете скачивать файлы

!ВНИМАНИЕ!
Сайт не предоставляет электронные версии произведений, а занимается лишь коллекционированием и каталогизацией ссылок, присылаемых и публикуемых на форуме нашими читателями. Если вы являетесь правообладателем какого-либо представленного материала и не желаете, чтобы ссылка на него находилась в нашем каталоге, свяжитесь с нами, и мы незамедлительно удалим ее. Файлы для обмена на трекере предоставлены пользователями сайта, и администрация не несет ответственности за их содержание. Просьба не заливать файлы, защищенные авторскими правами, а также файлы нелегального содержания!