DL-List and Torrent activity
None
 
   
 
 

[Quote]
RUS_D

Безродные звери / Beasts of No Nation / 2015
Страна: США
Студия: Come What May Productions, Mammoth Entertainment, New Balloon, Participant Media, Red Crown Pro
Жанр: Драма, Военный
Год выпуска: 2015
Продолжительность: 02:16:33
Перевод: Любительский (дублированный) Доп. инфо о переводе Project Web Money
Cубтитры: нет
Оригинальная аудиодорожка: английский
Режиссер: Кэри Фукунага
В ролях: Идрис Эльба, Абрам Атта, Эммануэль Аффадзи, Рики Аделайитор, Эндрю Эйдот, Вера Ньяркоа Антви, Эйма Абебрезе, Кобана Амисса-Сэм, Френсис Уедди, Фред Нии Умуги, Джон Артур
Описание: Фильм расскажет о приключениях юноши по имени Агу, которого гражданская война на западе Африки принуждает вступить в команду наемников. Судьбе мало того, что парень пережил гибель отца и исчезновение сестры и матери, она погружает его в жизнь, полную насилия и жестокости.
Сэмпл: http://multi-up.com/1072726
Тип релиза: WEBRip
Контейнер: Xvid
Видео: Xvid, 720x304, ~1279 Kbps
Аудио: MP3, 2 ch, 128 kbps, CBR - Русский
Аудио 2: AC3, 2 ch, 192 kbps, CBR - Английский

MediaInfo

General
Complete name : D:\Downloading\B.N.N.2015.WEBRip.avi
Format : AVI
Format/Info : Audio Video Interleave
File size : 1.54 GiB
Duration : 2h 16mn
Overall bit rate : 1 617 Kbps
Writing application : VirtualDubMod 1.5.10.2 (build 2540/release)
Writing library : VirtualDubMod build 2540/release
Video
ID : 0
Format : MPEG-4 Visual
Format profile : Advanced Simple@L5
Format settings, BVOP : 2
Format settings, QPel : No
Format settings, GMC : No warppoints
Format settings, Matrix : Default (H.263)
Muxing mode : Packed bitstream
Codec ID : XVID
Codec ID/Hint : XviD
Duration : 2h 16mn
Bit rate : 1 279 Kbps
Width : 720 pixels
Height : 304 pixels
Display aspect ratio : 2.35:1
Frame rate : 29.970 fps
Color space : YUV
Chroma subsampling : 4:2:0
Bit depth : 8 bits
Scan type : Progressive
Compression mode : Lossy
Bits/(Pixel*Frame) : 0.195
Stream size : 1.22 GiB (79%)
Writing library : XviD 66
Audio #1
ID : 1
Format : MPEG Audio
Format version : Version 1
Format profile : Layer 3
Mode : Joint stereo
Mode extension : MS Stereo
Codec ID : 55
Codec ID/Hint : MP3
Duration : 2h 16mn
Bit rate mode : Constant
Bit rate : 128 Kbps
Channel(s) : 2 channels
Sampling rate : 44.1 KHz
Compression mode : Lossy
Delay relative to video : 5ms
Stream size : 125 MiB (8%)
Alignment : Split accross interleaves
Interleave, duration : 33 ms (1.00 video frame)
Interleave, preload duration : 500 ms
Audio #2
ID : 2
Format : AC-3
Format/Info : Audio Coding 3
Mode extension : CM (complete main)
Format settings, Endianness : Big
Codec ID : 2000
Duration : 2h 16mn
Bit rate mode : Constant
Bit rate : 192 Kbps
Channel(s) : 2 channels
Channel positions : Front: L R
Sampling rate : 48.0 KHz
Compression mode : Lossy
Stream size : 188 MiB (12%)
Alignment : Split accross interleaves
Interleave, duration : 33 ms (1.00 video frame)
Interleave, preload duration : 500 ms

Скриншоты

Display posts:    

Current time is: 03-Jul 20:05

All times are UTC ± 0


You cannot post new topics in this forum
You cannot reply to topics in this forum
You cannot edit your posts in this forum
You cannot delete your posts in this forum
You cannot vote in polls in this forum
You cannot attach files in this forum
You cannot download files in this forum

!ATTENTION!
The site does not give electronic versions of products, and is engaged only in a collecting and cataloguing of the references sent and published at a forum by our readers. If you are the legal owner of any submitted material and do not wish that the reference to it was in our catalogue, contact us and we shall immediately remove her. Files for an exchange on tracker are given by users of a site, and the administration does not bear the responsibility for their maintenance. The request to not fill in the files protected by copyrights, and also files of the illegal maintenance!