Статистика раздачи
Нет
 
   
 
 

[Цитировать]
Magnat

Тяжёлая поездка / Hevi reissu /- Год выпуска: 2018
Жанр: Комедия, музыка
Режиссер: Юусо Лаатио, Юкка Видгрен
В ролях: Торстейн Бьёрклунд, Антти Хейккинен, Вилле Хильска, Йоханнес Холопайнен, Самули Джаскио, Минка Куустонен, Кай Лехтинен, Пирьо Лонка, Синикка Моккила, Ансси Ниеми-Двадцатипятилетний Туро живёт в маленькой деревушке в Финляндии. Единственное, что приносит удовольствие в его однообразной жизни — это метал-банда, в которой он поёт со своими друзьями. Группа существует не первый год, но ни разу не давала концертов. И вот однажды ребятам поступает предложение выступить на одном из лучших метал-фестивалей Норвегии Northern Damnation. Наконец у них появился шанс выбраться из деревни и достичь успеха. Impaled Rektum (так ребята решили назвать свою группу) понимают, что второго такого шанса у них не будет. С чем только не приходится столкнуться друзьям на пути к заветной мечте… Их путешествие включает хэви-метал, ограбление могил, вооруженный конфликт между Финляндией и Норвегией, встречу с викингами - и всё ради того, чтобы отыграть свой первый настоящий концерт.
Страна: Финляндия, Норвегия
Студия: Making Movies Oy
Продолжительность: 01:30:26
Перевод: Профессиональный многоголосый [HDRezka Studio]
Кодек: MPEG-4 AVC
Качество: HDRip AVC
Видео: 2210 Кбит/с, 1024x432
Звук: Русский (AC3, 2 ch, 192 Кбит/с)

MI

General
Unique ID : 215549254329405122431536377477579605611 (0xA22946BE3D79AE849B2FE4BF9F43066B)
Complete name : D:Тяжёлая поездка.2018.HDRip (AVC).Kinozal-Reliz.mkv
Format : Matroska
Format version : Version 2
File size : 1.52 GiB
Duration : 1 h 30 min
Overall bit rate : 2 402 kb/s
Encoded date : UTC 2018-12-09 13:45:33
Writing application : mkvmerge v7.8.0 ('River Man') 32bit built on Apr 3 2015 12:11:22
Writing library : libebml v1.3.1 + libmatroska v1.4.2
Video
ID : 1
Format : AVC
Format/Info : Advanced Video Codec
Format profile : High@L4.1
Format settings : CABAC / 11 Ref Frames
Format settings, CABAC : Yes
Format settings, ReFrames : 11 frames
Codec ID : V_MPEG4/ISO/AVC
Duration : 1 h 30 min
Bit rate : 2 210 kb/s
Width : 1 024 pixels
Height : 432 pixels
Display aspect ratio : 2.40:1
Frame rate mode : Constant
Frame rate : 24.000 FPS
Color space : YUV
Chroma subsampling : 4:2:0
Bit depth : 8 bits
Scan type : Progressive
Bits/(Pixel*Frame) : 0.208
Stream size : 1.37 GiB (90%)
Writing library : x264 core 146 r2538 121396c
Encoding settings : cabac=1 / ref=11 / deblock=1:0:0 / analyse=0x3:0x111 / me=umh / subme=9 / psy=1 / psy_rd=1.00:0.10 / mixed_ref=1 / me_range=16 / chroma_me=1 / trellis=2 / 8x8dct=1 / cqm=0 / deadzone=21,11 / fast_pskip=0 / chroma_qp_offset=-3 / threads=6 / lookahead_threads=1 / sliced_threads=0 / nr=0 / decimate=1 / interlaced=0 / bluray_compat=0 / constrained_intra=0 / bframes=3 / b_pyramid=2 / b_adapt=2 / b_bias=0 / direct=3 / weightb=1 / open_gop=0 / weightp=2 / keyint=250 / keyint_min=23 / scenecut=40 / intra_refresh=0 / rc_lookahead=50 / rc=2pass / mbtree=1 / bitrate=2210 / ratetol=1.0 / qcomp=0.60 / qpmin=0 / qpmax=69 / qpstep=4 / cplxblur=20.0 / qblur=0.5 / ip_ratio=1.40 / aq=1:1.00
Default : Yes
Forced : No
Audio
ID : 2
Format : AC-3
Format/Info : Audio Coding 3
Commercial name : Dolby Digital
Codec ID : A_AC3
Duration : 1 h 30 min
Bit rate mode : Constant
Bit rate : 192 kb/s
Channel(s) : 2 channels
Channel layout : L R
Sampling rate : 48.0 kHz
Frame rate : 31.250 FPS (1536 SPF)
Bit depth : 16 bits
Compression mode : Lossy
Stream size : 124 MiB (8%)
Service kind : Complete Main
Default : Yes
Forced : No

Скриншоты


Показать сообщения:    

Текущее время: 24-Мар 23:32

Часовой пояс: UTC ± 0


Вы не можете начинать темы
Вы не можете отвечать на сообщения
Вы не можете редактировать свои сообщения
Вы не можете удалять свои сообщения
Вы не можете голосовать в опросах
Вы не можете прикреплять файлы к сообщениям
Вы не можете скачивать файлы

!ВНИМАНИЕ!
Сайт не предоставляет электронные версии произведений, а занимается лишь коллекционированием и каталогизацией ссылок, присылаемых и публикуемых на форуме нашими читателями. Если вы являетесь правообладателем какого-либо представленного материала и не желаете, чтобы ссылка на него находилась в нашем каталоге, свяжитесь с нами, и мы незамедлительно удалим ее. Файлы для обмена на трекере предоставлены пользователями сайта, и администрация не несет ответственности за их содержание. Просьба не заливать файлы, защищенные авторскими правами, а также файлы нелегального содержания!