DL-List and Torrent activity
Complete: [ 1 ]
 
   
 
 

[Quote]
Magnat

Заговор / Conspiracy/
Год выпуска: 2001
Выпущено: Великобритания, США, BBC Television Centre, HBO Films, Home Box Office (HBO)
Жанр: Военный, драма, исторический
Режиссер: Фрэнк Пирсон
В ролях: Кеннет Брана, Стэнли Туччи, Колин Фёрт, Барнаби Кэй, Бен Дэниэлс, Дэвид Трелфолл, Джонатан Кой, Брендан Койл, Йан МакНис, Оуэн Тил, Николас Вудесон, Кевин МакНэлли, Питер Салливан, Юэн Стюарт, Брайан Петтифер, Клэйр Баллас, Дэвид Гловер, Андреас Гюнтер, Том Хиддлстон, Саймон Марки, Дирк Мартенс, Росс О'Хеннесси, Флориан Пэнзнер, Хиннерк Шёнеманн, Дэвид Спинкс, Дэвид Уиллоуби, Пол Бэннон, Ник Браун-Посвящён реальному историческому событию, известному как Ванзейская конференция. В январе 1942 года пятнадцать высших чинов нацистской Германии, связанных с расовыми проблемами в стране и за ее пределами, собрались в поместье под Берлином на тайную конференцию. Решался один вопрос – как поступить Германии со своими евреями, а после победы в войне – вообще с еврейским народом. В ходе заседания было принято строго конфиденциальное решение, за которое единогласного проголосовали все участники и которое поставило под угрозу жизни миллионов людей… Фильм "Заговор" основан на единственной стенограмме конференции, которая, в итоге, и повлияет на "окончательное решение" Адольфа Гитлера.
Продолжительность: 01:35:47
Перевод: Профессиональный многоголосый, профессиональный двухголосый
Субтитры: Английские
Навигация по главам: Есть
Качество: WEB-DL 1080p
Видео: MPEG-4 AVC, 8264 Кбит/сек, 1920x1080, 23,976 кадра/сек
Аудио #1: AC3, 2 ch, 384 Кбит/сек | Русский, профессиональный (многоголосый закадровый) SDI Media
Аудио #2: AC3, 2 ch, 192 Кбит/сек | Русский, профессиональный (двухголосый закадровый) Ульпаней Эль-Ром
Аудио #3: AC3, 2 ch, 192 Кбит/сек | Русский, профессиональный (двухголосый закадровый) РТР
Аудио #4: EAC3, 2 ch, 224 Кбит/сек | Английский, оригинал

Скриншоты

Инфо-файл

Общее
Уникальный идентификатор : 224976473437248605394834597086044839806 (0xA940E487D38342D1B5B13ADBBC4F5F7E)
Полное имя : Заговор.2001.WEB-DL.1080p.mkv
Формат : Matroska
Версия формата : Version 2
Размер файла : 6,32 Гбайт
Продолжительность : 1 ч. 35 м.
Режим общего битрейта : Переменный
Общий поток : 9444 Кбит/сек
Дата кодирования : UTC 2018-12-09 17:22:11
Программа кодирования : mkvmerge v5.8.0 ('No Sleep / Pillow') built on Sep 2 2012 15:37:04
Библиотека кодирования : libebml v1.2.3 + libmatroska v1.3.0
Видео
Идентификатор : 1
Формат : AVC
Формат/Информация : Advanced Video Codec
Профиль формата : High@L4
Настройки формата : CABAC / 4 Ref Frames
Параметр CABAC формата : Да
Параметр RefFrames формата : 4 кадра
Идентификатор кодека : V_MPEG4/ISO/AVC
Продолжительность : 1 ч. 35 м.
Вид битрейта : Переменный
Битрейт : 8264 Кбит/сек
Максимальный битрейт : 15,0 Мбит/сек
Ширина : 1920 пикселей
Высота : 1080 пикселей
Соотношение сторон : 16:9
Режим частоты кадров : Постоянный
Частота кадров : 23,976 (24000/1001) кадра/сек
Цветовое пространство : YUV
Субдискретизация насыщенности : 4:2:0
Битовая глубина : 8 бит
Тип развёртки : Прогрессивная
Бит/(Пиксели*Кадры) : 0.166
Размер потока : 5,53 Гбайт (88%)
Библиотека кодирования : x264 core 148 r2623 d5b2374
Настройки программы : cabac=1 / ref=4 / deblock=1:-1:-1 / analyse=0x3:0x133 / me=umh / subme=9 / psy=1 / psy_rd=1.00:0.15 / mixed_ref=1 / me_range=24 / chroma_me=1 / trellis=2 / 8x8dct=1 / cqm=0 / deadzone=21,11 / fast_pskip=1 / chroma_qp_offset=-3 / threads=34 / lookahead_threads=5 / sliced_threads=0 / nr=150 / decimate=1 / interlaced=0 / bluray_compat=0 / constrained_intra=0 / bframes=8 / b_pyramid=2 / b_adapt=2 / b_bias=0 / direct=3 / weightb=1 / open_gop=0 / weightp=2 / keyint=120 / keyint_min=61 / scenecut=0 / intra_refresh=0 / rc_lookahead=120 / rc=crf / mbtree=1 / crf=18.0 / qcomp=0.60 / qpmin=0 / qpmax=69 / qpstep=4 / vbv_maxrate=15000 / vbv_bufsize=31250 / crf_max=0.0 / nal_hrd=vbr / filler=0 / ip_ratio=1.40 / aq=3:1.00
Язык : English
По умолчанию : Да
Принудительно : Нет
Цветовой диапазон : Limited
Основные цвета : BT.709
Характеристики трансфера : BT.709
Коэффициенты матрицы : BT.709
Аудио #1
Идентификатор : 2
Формат : AC-3
Формат/Информация : Audio Coding 3
Идентификатор кодека : A_AC3
Продолжительность : 1 ч. 35 м.
Вид битрейта : Постоянный
Битрейт : 384 Кбит/сек
Каналы : 2 канала
Расположение каналов : Front: L R
Частота : 48,0 КГц
Частота кадров : 31,250 кадров/сек (1536 SPF)
Битовая глубина : 16 бит
Метод сжатия : С потерями
Размер потока : 263 Мбайт (4%)
Заголовок : MVO | SDI Media
Язык : Russian
По умолчанию : Да
Принудительно : Нет
Аудио #2
Идентификатор : 3
Формат : AC-3
Формат/Информация : Audio Coding 3
Идентификатор кодека : A_AC3
Продолжительность : 1 ч. 35 м.
Вид битрейта : Постоянный
Битрейт : 192 Кбит/сек
Каналы : 2 канала
Расположение каналов : Front: L R
Частота : 48,0 КГц
Частота кадров : 31,250 кадров/сек (1536 SPF)
Битовая глубина : 16 бит
Метод сжатия : С потерями
Размер потока : 132 Мбайт (2%)
Заголовок : DVO | Ульпаней Эль-Ром
Язык : Russian
По умолчанию : Нет
Принудительно : Нет
Аудио #3
Идентификатор : 4
Формат : AC-3
Формат/Информация : Audio Coding 3
Идентификатор кодека : A_AC3
Продолжительность : 1 ч. 35 м.
Вид битрейта : Постоянный
Битрейт : 192 Кбит/сек
Каналы : 2 канала
Расположение каналов : Front: L R
Частота : 48,0 КГц
Частота кадров : 31,250 кадров/сек (1536 SPF)
Битовая глубина : 16 бит
Метод сжатия : С потерями
Размер потока : 132 Мбайт (2%)
Заголовок : DVO | РТР
Язык : Russian
По умолчанию : Нет
Принудительно : Нет
Аудио #4
Идентификатор : 5
Формат : E-AC-3
Формат/Информация : Enhanced Audio Coding 3
Идентификатор кодека : A_EAC3
Продолжительность : 1 ч. 35 м.
Вид битрейта : Постоянный
Битрейт : 224 Кбит/сек
Каналы : 2 канала
Расположение каналов : Front: L R
Частота : 48,0 КГц
Частота кадров : 187,500 кадров/сек (256 SPF)
Метод сжатия : С потерями
Размер потока : 153 Мбайт (2%)
Заголовок : Original
Язык : English
По умолчанию : Нет
Принудительно : Нет
Текст
Идентификатор : 6
Формат : UTF-8
Идентификатор кодека : S_TEXT/UTF8
Идентификатор кодека/Информация : UTF-8 Plain Text
Язык : English
По умолчанию : Нет
Принудительно : Нет
Меню
00:00:00.000 : en:01. Prologue (Two Hours In Wannsee)
00:02:13.708 : en:02. Eichmann Prepares
00:03:36.374 : en:03. The Guest Arrives
00:12:38.499 : en:04. General Heydrich
00:16:04.872 : en:05. The Matter At Hand
00:21:50.384 : en:06. "This Meeting Is Not Taking Place."
00:26:41.675 : en:07. A Break In The Programme
00:29:12.325 : en:08. Moving Along: Jews, Defined
00:35:28.868 : en:09. Handling Special Exemptions
00:45:34.757 : en:10. "The Reality Of The Jew..."
00:49:19.865 : en:11. Lunch. "We WILL Accomplish This."
00:57:43.618 : en:12. 'The Method' Defined
01:06:50.748 : en:13. A Bad Cigar
01:11:50.047 : en:14. A Triumphant German Vision
01:15:34.605 : en:15. In Conclusion
01:19:04.515 : en:16. The Work Awaits
01:21:34.331 : en:17. A Fireside Story
01:25:20.023 : en:18. Epilogue & End Credits

Дополнительная информация

• Исходник видео WEB-DL Amazon.
Display posts:    

Current time is: 12-Nov 03:55

All times are UTC ± 0


You cannot post new topics in this forum
You cannot reply to topics in this forum
You cannot edit your posts in this forum
You cannot delete your posts in this forum
You cannot vote in polls in this forum
You cannot attach files in this forum
You cannot download files in this forum

!ATTENTION!
The site does not give electronic versions of products, and is engaged only in a collecting and cataloguing of the references sent and published at a forum by our readers. If you are the legal owner of any submitted material and do not wish that the reference to it was in our catalogue, contact us and we shall immediately remove her. Files for an exchange on tracker are given by users of a site, and the administration does not bear the responsibility for their maintenance. The request to not fill in the files protected by copyrights, and also files of the illegal maintenance!