[Цитировать]
Sashok

Тренировочный день / Training Day
Страна: США, Австралия
Жанр: триллер, драма, криминал
Год выпуска: 2001
Продолжительность: 02:02:04
Перевод: Профессиональный (дублированный)
Cубтитры: русские, английские
Оригинальная аудиодорожка: английский
Режиссер: Энн Флетчер / Anne Fletcher
В ролях: Дензел Вашингтон, Итан Хоук, Скотт Гленн, Харрис Юлин, Том Беренджер, Рэймонд Дж. Бэрри, Клифф Кёртис, Др. Дре, Снуп Догг, Ева Мендес
Описание: Фильм посвящен событиям, приключившимся в первый день работы новичка-полицейского Джейка Хойта, поступившего на работу в полицию Лос-Анджелеса, а конкретно — в отдел по борьбе с наркотиками. Ему, как это всегда бывает, попался многоопытный партнер — Алонзо, коррумпированный полицейский-ветеран.
Американцам уже не привыкать к тому, что на улицах их страны ведется каждодневная война между наркодилерами и полицией. Алонзо давно усвоил тот факт, что законными методами с этим злом бороться бесполезно, а потому он выработал некую философию, балансирующую на грани добра и зла.
Сэмпл: http://multi-up.com/1074117
Качество видео: BDRip
Формат видео: MP4
Видео: AVC, 1280x542 (2.35:1), 23.976 fps, 4 744 Kbps (0.285 bit/pixel)
Аудио: AAC LC, 48.0 KHz, 2 ch, 98.1 Kbps, VBR (Russian)

MediaInfo

Формат : MPEG-4
Профиль формата : Base Media
Идентификатор кодека : isom
Размер файла : 4,13 Гбайт
Продолжительность : 2 ч. 2 м.
Режим общего битрейта : Переменный
Общий поток : 4849 Кбит/сек
Название фильма : Training Day 2001 720p BluRay x264-LEONARDO
Тип содержимого : Movie
Дата кодирования : UTC 2015-08-22 18:15:58
Дата пометки : UTC 2015-08-22 18:20:45
Программа кодирования : MkvToMp4 [www.mkvtomp4.ru] version: 0.224 (x64)
Обложка : Yes
HDVideo : Yes
Видео
Идентификатор : 1
Формат : AVC
Формат/Информация : Advanced Video Codec
Профиль формата : High@L4.1
Параметр CABAC формата : Да
Параметр ReFrames формата : 9 кадров
Идентификатор кодека : avc1
Идентификатор кодека/Информация : Advanced Video Coding
Продолжительность : 2 ч. 2 м.
Битрейт : 4744 Кбит/сек
Максимальный битрейт : 16,4 Мбит/сек
Ширина : 1280 пикселей
Высота : 542 пикселя
Соотношение сторон : 2,35:1
Режим частоты кадров : Постоянный
Частота кадров : 23,976 кадра/сек
Цветовое пространство : YUV
Субдискретизация насыщенности : 4:2:0
Битовая глубина : 8 бит
Тип развёртки : Прогрессивная
Бит/(Пиксели*Кадры) : 0.285
Размер потока : 4,04 Гбайт (98%)
Библиотека кодирования : x264 core 125 r2208 d9d2288
Настройки программы : cabac=1 / ref=9 / deblock=1:-3:-3 / analyse=0x3:0x133 / me=umh / subme=11 / psy=1 / psy_rd=1.00:0.00 / mixed_ref=1 / me_range=32 / chroma_me=1 / trellis=2 / 8x8dct=1 / cqm=0 / deadzone=21,11 / fast_pskip=0 / chroma_qp_offset=-2 / threads=12 / lookahead_threads=2 / sliced_threads=0 / nr=0 / decimate=1 / interlaced=0 / bluray_compat=0 / constrained_intra=0 / bframes=8 / b_pyramid=2 / b_adapt=2 / b_bias=0 / direct=3 / weightb=1 / open_gop=0 / weightp=2 / keyint=250 / keyint_min=23 / scenecut=40 / intra_refresh=0 / rc=2pass / mbtree=0 / bitrate=4744 / ratetol=1.0 / qcomp=0.60 / qpmin=0 / qpmax=69 / qpstep=4 / cplxblur=20.0 / qblur=0.5 / ip_ratio=1.40 / pb_ratio=1.30 / aq=1:1.00
Язык : English
Дата кодирования : UTC 2015-08-22 18:15:58
Дата пометки : UTC 2015-08-22 18:18:12
Аудио
Идентификатор : 2
Формат : AAC
Формат/Информация : Advanced Audio Codec
Профиль формата : LC
Идентификатор кодека : 40
Продолжительность : 2 ч. 2 м.
Вид битрейта : Переменный
Битрейт : 98,1 Кбит/сек
Максимальный битрейт : 144 Кбит/сек
Каналы : 2 канала
Расположение каналов : Front: L R
Частота : 48,0 КГц
Метод сжатия : С потерями
Размер потока : 85,7 Мбайт (2%)
Заголовок : Dub / Dub
Язык : Russian
Дата кодирования : UTC 2015-08-22 18:09:41
Дата пометки : UTC 2015-08-22 18:18:12
Текст #1
Идентификатор : 3
Формат : Timed Text
Режим смешивания : sbtl
Идентификатор кодека : tx3g
Продолжительность : 1 ч. 55 м.
Вид битрейта : Переменный
Битрейт : 56 бит/сек
Размер потока : 47,8 Кбайт (0%)
Язык : English
Дата кодирования : UTC 2015-08-22 18:18:12
Дата пометки : UTC 2015-08-22 18:18:12
Текст #2
Идентификатор : 4
Формат : Timed Text
Режим смешивания : sbtl
Идентификатор кодека : tx3g
Продолжительность : 1 ч. 55 м.
Вид битрейта : Переменный
Битрейт : 95 бит/сек
Размер потока : 80,4 Кбайт (0%)
Язык : Russian
Дата кодирования : UTC 2015-08-22 18:18:12
Дата пометки : UTC 2015-08-22 18:18:12
Меню
Идентификатор : 5
Идентификатор кодека : text
Продолжительность : 2 ч. 2 м.
Дата кодирования : UTC 2015-08-22 18:20:45
Дата пометки : UTC 2015-08-22 18:20:45
00:00:00.000 : It's Today
00:03:53.524 : Tell Me A Story
00:08:02.356 : Leave Family Out
00:12:20.072 : Drug Roust
00:15:37.394 : Narcotics In His Blood
00:20:35.943 : Joking With Roger
00:25:42.290 : Alley Incident
00:32:13.932 : It Takes A Wolf
00:36:12.670 : Collaring Sammy
00:40:41.063 : Sandman's Wife
00:45:20.467 : Firing Line
00:47:15.207 : Wolf Or Sheep?
00:49:24.002 : Mother And Son
00:55:04.259 : LAPD's Finest
00:59:59.762 : The Unit Punches In
01:02:56.272 : Roger Out Of His Misery
01:09:56.859 : The Scenario
01:15:08.253 : This Is The Game
01:20:29.699 : Five-Card Draw
01:24:17.385 : The Drop On The Cop
01:29:26.277 : Smiley's Cousin
01:33:27.601 : "I'm Here For Alonzo"
01:37:21.335 : Preserving Life
01:41:25.579 : Rooftop Battle
01:45:00.210 : What Jake Learned Today
01:48:44.184 : "You Can't Kill Me"
01:52:39.961 : Going Home
01:55:43.144 : End Credits
Вид битрейта : VBR

Скриншоты

Показать сообщения:    

Текущее время: 22-Авг 05:29

Часовой пояс: UTC ± 0


Вы не можете начинать темы
Вы не можете отвечать на сообщения
Вы не можете редактировать свои сообщения
Вы не можете удалять свои сообщения
Вы не можете голосовать в опросах
Вы не можете прикреплять файлы к сообщениям
Вы не можете скачивать файлы

!ВНИМАНИЕ!
Сайт не предоставляет электронные версии произведений, а занимается лишь коллекционированием и каталогизацией ссылок, присылаемых и публикуемых на форуме нашими читателями. Если вы являетесь правообладателем какого-либо представленного материала и не желаете, чтобы ссылка на него находилась в нашем каталоге, свяжитесь с нами, и мы незамедлительно удалим ее. Файлы для обмена на трекере предоставлены пользователями сайта, и администрация не несет ответственности за их содержание. Просьба не заливать файлы, защищенные авторскими правами, а также файлы нелегального содержания!