[Цитировать]
Sashok

Мир Юрского периода / Jurassic World
Страна: США, Китай
Жанр: фантастика, приключения, боевик
Год выпуска: 2015
Продолжительность: 02:04:20
Перевод: Дублированный [лицензия BD CEE]
Cубтитры: русские (полные +форс.), украинские (полные +форс.), английские (Full + SDH + SDH-Colored)
Оригинальная аудиодорожка: английский
Режиссер: Колин Треворроу / Colin Trevorrow
В ролях: Крис Пратт, Брайс Даллас Ховард, Винсент Д’Онофрио, Ник Дж. Робинсон, Тай Симпкинс, Омар Си, Ирфан Кхан, Брайан Ти, Джейк Джонсон, Б.Д. Вонг
Описание: Действия фильма происходят спустя двадцать два года после событий Парка юрского периода. На острове Нублар функционирует тематический парк, некогда задуманный Джоном Хэммондом. Именно в это место отправляются два брата, Зак и Грэй, которые решили провести выходные в мире динозавров. Вместе с многочисленными туристами они посещают увлекательные экскурсии и представления, непосредственное участие в которых принимают эти гигантские создания. Однако никто из людей не знает, что сотрудники парка создали новую особь, которая выбралась на свободу и начала свою охоту. Но самое страшное то, что остановить этого динозавра будет очень непросто, поскольку он намного умнее своих сородичей...
Сэмпл: http://multi-up.com/1074339
Качество видео: BDRip
Формат видео: MKV
Видео: AVC, 1280x690 (2.000), 7746 kbps, 23,976 fps, 0.394 bit/pixel
Аудио: DTS / 5.1 / 48 kHz / 768 kbps / 24 bit | RUS
Аудио 2: AC3 / 5.1 / 48 kHz / 640 kbps / 16 bit | ENG

MediaInfo

Формат : Matroska
Версия формата : Version 4 / Version 2
Размер файла : 7,95 Гбайт
Продолжительность : 2 ч. 4 м.
Общий поток : 9154 Кбит/сек
Название фильма : Jurassic World (2015) - HELLYWOOD
Дата кодирования : UTC 2015-10-04 06:31:22
Программа кодирования : mkvmerge v5.9.0 ('On The Loose') built on Dec 15 2012 16:39:58
Библиотека кодирования : libebml v1.3.0 + libmatroska v1.4.0
Видео
Идентификатор : 1
Формат : AVC
Формат/Информация : Advanced Video Codec
Профиль формата : High@L4.1
Параметр CABAC формата : Да
Параметр ReFrames формата : 9 кадров
Идентификатор кодека : V_MPEG4/ISO/AVC
Продолжительность : 2 ч. 4 м.
Битрейт : 7746 Кбит/сек
Ширина : 1280 пикселей
Высота : 640 пикселей
Соотношение сторон : 2,000
Режим частоты кадров : Постоянный
Частота кадров : 23,976 кадра/сек
Цветовое пространство : YUV
Субдискретизация насыщенности : 4:2:0
Битовая глубина : 8 бит
Тип развёртки : Прогрессивная
Бит/(Пиксели*Кадры) : 0.394
Размер потока : 6,57 Гбайт (83%)
Заголовок : potroks
Библиотека кодирования : x264 core 148 r2597M e86f3a1
Настройки программы : cabac=1 / ref=9 / deblock=1:-3:-3 / analyse=0x3:0x133 / me=umh / subme=11 / psy=1 / psy_rd=1.00:0.00 / mixed_ref=1 / me_range=48 / chroma_me=1 / trellis=2 / 8x8dct=1 / cqm=0 / deadzone=21,11 / fast_pskip=0 / chroma_qp_offset=-2 / threads=10 / lookahead_threads=2 / sliced_threads=0 / nr=0 / decimate=1 / interlaced=0 / bluray_compat=0 / constrained_intra=0 / bframes=10 / b_pyramid=2 / b_adapt=2 / b_bias=0 / direct=3 / weightb=1 / open_gop=0 / weightp=2 / keyint=250 / keyint_min=23 / scenecut=40 / intra_refresh=0 / rc=2pass / mbtree=0 / bitrate=7746 / ratetol=1.0 / qcomp=0.70 / qpmin=0 / qpmax=69 / qpstep=4 / cplxblur=20.0 / qblur=0.5 / ip_ratio=1.40 / pb_ratio=1.30 / aq=1:0.80
Язык : English
Default : Да
Forced : Нет
Аудио #1
Идентификатор : 2
Формат : DTS
Формат/Информация : Digital Theater Systems
Режим : 16
Параметр Endianness формата : Big
Идентификатор кодека : A_DTS
Продолжительность : 2 ч. 4 м.
Вид битрейта : Постоянный
Битрейт : 768 Кбит/сек
Каналы : 6 каналов
Расположение каналов : Front: L C R, Side: L R, LFE
Частота : 48,0 КГц
Битовая глубина : 24 бит
Метод сжатия : С потерями
Размер потока : 683 Мбайт (8%)
Заголовок : Dub | DTS 5.1 @ 768 kbps - Blu-Ray CEE
Язык : Russian
Default : Да
Forced : Нет
Аудио #2
Идентификатор : 3
Формат : AC-3
Формат/Информация : Audio Coding 3
Расширение режима : CM (complete main)
Параметр Endianness формата : Big
Идентификатор кодека : A_AC3
Продолжительность : 2 ч. 4 м.
Вид битрейта : Постоянный
Битрейт : 640 Кбит/сек
Каналы : 6 каналов
Расположение каналов : Front: L C R, Side: L R, LFE
Частота : 48,0 КГц
Метод сжатия : С потерями
Размер потока : 569 Мбайт (7%)
Заголовок : Original | DD 5.1 @ 640 kbps
Язык : English
Default : Нет
Forced : Нет
Текст #1
Идентификатор : 4
Формат : UTF-8
Идентификатор кодека : S_TEXT/UTF8
Идентификатор кодека/Информация : UTF-8 Plain Text
Заголовок : Forced
Язык : Russian
Default : Да
Forced : Нет
Текст #2
Идентификатор : 5
Формат : UTF-8
Идентификатор кодека : S_TEXT/UTF8
Идентификатор кодека/Информация : UTF-8 Plain Text
Заголовок : Blu-Ray
Язык : Russian
Default : Нет
Forced : Нет
Текст #3
Идентификатор : 6
Формат : UTF-8
Идентификатор кодека : S_TEXT/UTF8
Идентификатор кодека/Информация : UTF-8 Plain Text
Заголовок : Forced
Язык : Ukrainian
Default : Нет
Forced : Нет
Текст #4
Идентификатор : 7
Формат : UTF-8
Идентификатор кодека : S_TEXT/UTF8
Идентификатор кодека/Информация : UTF-8 Plain Text
Заголовок : Blu-Ray
Язык : Ukrainian
Default : Нет
Forced : Нет
Текст #5
Идентификатор : 8
Формат : UTF-8
Идентификатор кодека : S_TEXT/UTF8
Идентификатор кодека/Информация : UTF-8 Plain Text
Заголовок : Full
Язык : English
Default : Нет
Forced : Нет
Текст #6
Идентификатор : 9
Формат : UTF-8
Идентификатор кодека : S_TEXT/UTF8
Идентификатор кодека/Информация : UTF-8 Plain Text
Заголовок : SDH
Язык : English
Default : Нет
Forced : Нет
Текст #7
Идентификатор : 10
Формат : UTF-8
Идентификатор кодека : S_TEXT/UTF8
Идентификатор кодека/Информация : UTF-8 Plain Text
Заголовок : SDH-Colored
Язык : English
Default : Нет
Forced : Нет
Меню
00:00:00.000 : :(01)00:00:00:000
00:06:59.168 : :(02)00:06:59:168
00:11:01.827 : :(03)00:11:01:827
00:18:28.440 : :(04)00:18:28:440
00:25:34.866 : :(05)00:25:34:866
00:31:20.837 : :(06)00:31:20:837
00:39:23.861 : :(07)00:39:23:861
00:44:07.853 : :(08)00:44:07:853
00:48:57.225 : :(09)00:48:57:225
00:55:51.056 : :(10)00:55:51:056
01:01:21.344 : :(11)01:01:21:344
01:09:50.560 : :(12)01:09:50:561
01:15:25.479 : :(13)01:15:25:479
01:23:51.860 : :(14)01:23:51:860
01:30:14.700 : :(15)01:30:14:700
01:36:45.424 : :(16)01:36:45:424
01:41:15.652 : :(17)01:41:15:652
01:47:35.282 : :(18)01:47:35:282
01:53:06.029 : :(19)01:53:06:029
01:55:37.555 : :(20)01:55:37:555

Скриншоты

Показать сообщения:    

Текущее время: 24-Апр 22:51

Часовой пояс: UTC ± 0


Вы не можете начинать темы
Вы не можете отвечать на сообщения
Вы не можете редактировать свои сообщения
Вы не можете удалять свои сообщения
Вы не можете голосовать в опросах
Вы не можете прикреплять файлы к сообщениям
Вы не можете скачивать файлы

!ВНИМАНИЕ!
Сайт не предоставляет электронные версии произведений, а занимается лишь коллекционированием и каталогизацией ссылок, присылаемых и публикуемых на форуме нашими читателями. Если вы являетесь правообладателем какого-либо представленного материала и не желаете, чтобы ссылка на него находилась в нашем каталоге, свяжитесь с нами, и мы незамедлительно удалим ее. Файлы для обмена на трекере предоставлены пользователями сайта, и администрация не несет ответственности за их содержание. Просьба не заливать файлы, защищенные авторскими правами, а также файлы нелегального содержания!