DL-List and Torrent activity
None
 
   
 
 

[Quote]
Sashok

Эверест / Everest
Страна: США, Великобритания, Исландия
Студия: Universal Pictures, Cross Creek Pictures
Жанр: триллер, драма, приключения, биография, история
Год выпуска: 2015
Продолжительность: 02:00:54
Перевод: Профессиональный (полное дублирование) | чистый звук
Cубтитры: корейские | вшитые
Оригинальная аудиодорожка: английский
Режиссер: Бальтасар Кормакур
В ролях: Джейсон Кларк, Джош Бролин, Джейк Джилленхол, Сэм Уортингтон, Джон Хоукс, Майкл Келли, Ингвар Эггерт Сигюрдссон, Кира Найтли
Описание: Эверест — великая неприступная гора, покорить вершину которой мечтают многие профессиональные альпинисты. Одна из экспедиций на ее вершину закончилась настоящей трагедией, однако этот факт не останавливает отважных альпинистов. Опытный инструктор Роб Холл, собрав группу из лучших альпинистов, собирается совершить восхождение на самую высокую вершину планеты. Все эти люди полны мужества и отваги и они не остановятся ни перед чем, пока не поднимутся на вершину Эвереста. Но даже если эта гора покорится им, смогут ли они вернуться обратно живыми и невредимыми..?
Сэмпл: http://multi-up.com/1074475
Тип релиза: WEBRip 1080p
Контейнер: MKV
Видео: 1920x800 (2.40:1), 29.970 fps, MPEG-4 AVC ~5 876 kbps avg, 0.128 bit/pixel
Аудио: 48.0 kHz, AC3 Dolby Digital, 2/0 (L,R) ch, ~192.00 kbps avg (русский)
Аудио 2: 48.0 kHz, AC3 Dolby Digital, 2/0 (L,R) ch, ~192.00 kbps avg (английский)

MediaInfo

Format : Matroska
Format version : Version 4 / Version 2
File size : 5.39 GiB
Duration : 2h 0mn
Overall bit rate : 6 387 Kbps
Movie name : EVO
Encoded date : UTC 2015-11-04 05:18:34
Writing application : mkvmerge v8.5.0 ('Vanishing Act') 64bit
Writing library : libebml v1.3.1 + libmatroska v1.4.2
Video
ID : 1
Format : AVC
Format/Info : Advanced Video Codec
Format profile : High@L4.1
Format settings, CABAC : Yes
Format settings, ReFrames : 4 frames
Codec ID : V_MPEG4/ISO/AVC
Duration : 2h 0mn
Bit rate : 5 876 Kbps
Width : 1 920 pixels
Height : 800 pixels
Display aspect ratio : 2.40:1
Frame rate mode : Constant
Frame rate : 29.970 fps
Color space : YUV
Chroma subsampling : 4:2:0
Bit depth : 8 bits
Scan type : Progressive
Bits/(Pixel*Frame) : 0.128
Stream size : 4.96 GiB (92%)
Default : Yes
Forced : No
Audio #1
ID : 2
Format : AC-3
Format/Info : Audio Coding 3
Mode extension : CM (complete main)
Format settings, Endianness : Big
Codec ID : A_AC3
Duration : 2h 0mn
Bit rate mode : Constant
Bit rate : 192 Kbps
Channel(s) : 2 channels
Channel positions : Front: L R
Sampling rate : 48.0 KHz
Bit depth : 16 bits
Compression mode : Lossy
Stream size : 166 MiB (3%)
Language : Russian
Default : Yes
Forced : No
Audio #2
ID : 3
Format : AC-3
Format/Info : Audio Coding 3
Mode extension : CM (complete main)
Format settings, Endianness : Big
Codec ID : A_AC3
Duration : 2h 0mn
Bit rate mode : Constant
Bit rate : 192 Kbps
Channel(s) : 2 channels
Channel positions : Front: L R
Sampling rate : 48.0 KHz
Bit depth : 16 bits
Compression mode : Lossy
Stream size : 166 MiB (3%)
Language : English
Default : No
Forced : No

Скриншоты

[Quote]
Avandsan

По моему основан на реальных событиях или реальных людях. Хороший фильм...для тех кто любит такой жанр.красивые виды гор.стихия... смотрел когда вышел.на работе а торопях.обязательно пересмотрю спасибо за релиз
Display posts:    

Current time is: 05-Dec 05:37

All times are UTC ± 0


You cannot post new topics in this forum
You cannot reply to topics in this forum
You cannot edit your posts in this forum
You cannot delete your posts in this forum
You cannot vote in polls in this forum
You cannot attach files in this forum
You cannot download files in this forum

!ATTENTION!
The site does not give electronic versions of products, and is engaged only in a collecting and cataloguing of the references sent and published at a forum by our readers. If you are the legal owner of any submitted material and do not wish that the reference to it was in our catalogue, contact us and we shall immediately remove her. Files for an exchange on tracker are given by users of a site, and the administration does not bear the responsibility for their maintenance. The request to not fill in the files protected by copyrights, and also files of the illegal maintenance!