DL-List and Torrent activity
None
 
   
 
 

[Quote]
Sashok

Бегущий в лабиринте: Испытание огнём / Maze Runner: The Scorch Trials
Страна: США
Студия: TSG Entertainment, Temple Hill Entertainment, Gotham Group
Жанр: фантастика, боевик, триллер
Год выпуска: 2015
Продолжительность: 02:11:42
Перевод: Дублированный (лицензия)
Cубтитры: нет
Оригинальная аудиодорожка: английский
Режиссер: Уэс Болл\Wes Ball
В ролях: Дилан О’Брайен, Ки Хонг Ли, Кая Скоделарио, Томас Сэнгстер, Декстер Дарден, Алекс Дж. Флорес, Джейкоб Лофленд, Роза Салазар, Джанкарло Эспозито, Патришия Кларксон
Описание: Лабиринт пройден, но Томасу, Терезе, Минхо и прочим глэйдерам не приходится расслабляться. Таинственное руководство ПОРОКА — секретной организации, устроившей гонки на выживание — назначает ребятам новые, смертельно опасные испытания. На сей раз их ждет переход по раскаленной пустыне и встреча с жертвами неизлечимой болезни, которые отличаются буйным нравом и непредсказуемым поведением.
Сэмпл: http://multi-up.com/1076040
Тип релиза: BDRip 720p
Контейнер: MKV
Видео: 5618 kb/s, 1280x536
Аудио: Russian: AC3, 448 kb/s (6 ch) / English: DTS, 1509 kb/s (6 ch)

MI

Формат : Matroska
Версия формата : Version 2
Размер файла : 5,66 Гбайт
Продолжительность : 2 ч. 11 м.
Общий поток : 6151 Кбит/сек
Название фильма : Maze.Runner.The.Scorch.Trials.2015.BluRay.720p.DTS.x264-EPiC@HDArea
Дата кодирования : UTC 2015-11-20 04:19:52
Программа кодирования : mkvmerge v7.9.0 ('Birds') 64bit
Библиотека кодирования : libebml v1.3.1 + libmatroska v1.4.2
Видео
Идентификатор : 1
Формат : AVC
Формат/Информация : Advanced Video Codec
Профиль формата : High@L4.1
Параметр CABAC формата : Да
Параметр ReFrames формата : 12 кадров
Идентификатор кодека : V_MPEG4/ISO/AVC
Продолжительность : 2 ч. 11 м.
Битрейт : 4072 Кбит/сек
Ширина : 1280 пикселей
Высота : 534 пикселя
Соотношение сторон : 2,40:1
Режим частоты кадров : Постоянный
Частота кадров : 23,976 кадра/сек
Цветовое пространство : YUV
Субдискретизация насыщенности : 4:2:0
Битовая глубина : 8 бит
Тип развёртки : Прогрессивная
Бит/(Пиксели*Кадры) : 0.248
Размер потока : 3,75 Гбайт (66%)
Заголовок : Maze.Runner.The.Scorch.Trials.2015.BluRay.720p.DTS.x264-EPiC@HDArea
Библиотека кодирования : x264 core 142 r2431+42 c69a006 tMod [8-bit@all X86_64]
Настройки программы : cabac=1 / ref=12 / deblock=1:-3:-3 / analyse=0x3:0x133 / me=umh / subme=11 / psy=1 / fade_compensate=0.00 / psy_rd=1.05:1.00 / mixed_ref=1 / me_range=32 / chroma_me=1 / trellis=2 / 8x8dct=1 / cqm=0 / deadzone=21,11 / fast_pskip=0 / chroma_qp_offset=-4 / threads=12 / lookahead_threads=2 / sliced_threads=0 / nr=0 / decimate=0 / interlaced=0 / bluray_compat=0 / constrained_intra=0 / fgo=0 / bframes=8 / b_pyramid=2 / b_adapt=2 / b_bias=0 / direct=3 / weightb=1 / open_gop=0 / weightp=2 / keyint=240 / keyint_min=23 / scenecut=40 / intra_refresh=0 / rc_lookahead=60 / rc=crf / mbtree=0 / crf=17.3000 / qcomp=0.60 / qpmin=0:0:0 / qpmax=69:69:69 / qpstep=4 / vbv_maxrate=40000 / vbv_bufsize=30000 / crf_max=0.0 / nal_hrd=none / filler=0 / ip_ratio=1.40 / pb_ratio=1.30 / aq=1:1.00 / aq-sensitivity=10.00 / aq-factor=1.00:1.00:1.00 / aq2=0 / aq3=0
Язык : English
Default : Да
Forced : Нет
Аудио #1
Идентификатор : 2
Формат : AC-3
Формат/Информация : Audio Coding 3
Расширение режима : CM (complete main)
Параметр Endianness формата : Big
Идентификатор кодека : A_AC3
Продолжительность : 2 ч. 11 м.
Вид битрейта : Постоянный
Битрейт : 448 Кбит/сек
Каналы : 6 каналов
Расположение каналов : Front: L C R, Side: L R, LFE
Частота : 48,0 КГц
Метод сжатия : С потерями
Размер потока : 422 Мбайт (7%)
Язык : Russian
Default : Да
Forced : Нет
Аудио #2
Идентификатор : 3
Формат : DTS
Формат/Информация : Digital Theater Systems
Профиль формата : ES
Режим : 16
Параметр Endianness формата : Big
Идентификатор кодека : A_DTS
Продолжительность : 2 ч. 11 м.
Вид битрейта : Постоянный
Битрейт : 1509 Кбит/сек
Каналы : 6 каналов
Расположение каналов : Front: L C R, Side: L R, LFE
Частота : 48,0 КГц
Битовая глубина : 24 бит
Метод сжатия : С потерями
Размер потока : 1,39 Гбайт (25%)
Заголовок : English DTS Core 5.1 @1509 Kbps
Язык : English
Default : Нет
Forced : Нет
Меню
00:00:00.000 : en:Chapter 01
00:04:05.119 : en:Chapter 03
00:05:59.817 : en:Chapter 05
00:09:08.798 : en:Chapter 07
00:11:55.840 : en:Chapter 09
00:17:32.676 : en:Chapter 11
00:23:21.191 : en:Chapter 13
00:27:36.029 : en:Chapter 15
00:33:10.238 : en:Chapter 17
00:37:06.682 : en:Chapter 19
00:41:30.988 : en:Chapter 21
00:45:47.369 : en:Chapter 23
00:51:57.781 : en:Chapter 25
00:56:01.775 : en:Chapter 27
01:00:56.319 : en:Chapter 29
01:03:50.535 : en:Chapter 31
01:07:29.253 : en:Chapter 33
01:11:19.191 : en:Chapter 35
01:15:32.819 : en:Chapter 37
01:20:15.060 : en:Chapter 39
01:27:47.470 : en:Chapter 41
01:30:17.286 : en:Chapter 43
01:34:04.013 : en:Chapter 45
01:38:29.904 : en:Chapter 47
01:40:52.546 : en:Chapter 49
01:44:13.121 : en:Chapter 51
01:51:51.871 : en:Chapter 53
01:56:51.212 : en:Chapter 55
02:01:02.713 : en:Chapter 57
02:04:05.146 : en:Chapter 59
02:11:42.644 : en:Chapt

Скриншоты

[Quote]
Ayama

Предложение, если не трудно, заливайте разрешение 1080р. Полнометражные фильмы хочется смотреть в высоком качестве.

[Quote]
Sashok

Я бы с удовольствием, но винчестер забит под завязку, второй накрылся по гарантии.
Display posts:    

Current time is: 09-Jul 20:19

All times are UTC ± 0


You cannot post new topics in this forum
You cannot reply to topics in this forum
You cannot edit your posts in this forum
You cannot delete your posts in this forum
You cannot vote in polls in this forum
You cannot attach files in this forum
You cannot download files in this forum

!ATTENTION!
The site does not give electronic versions of products, and is engaged only in a collecting and cataloguing of the references sent and published at a forum by our readers. If you are the legal owner of any submitted material and do not wish that the reference to it was in our catalogue, contact us and we shall immediately remove her. Files for an exchange on tracker are given by users of a site, and the administration does not bear the responsibility for their maintenance. The request to not fill in the files protected by copyrights, and also files of the illegal maintenance!