DL-List and Torrent activity
None
 
   
 
 

[Quote]
Sashok

Перевозчик: Наследие / The Transporter Refueled
Страна: Франция, Китай, Бельгия
Студия: EuropaCorp, TF1 Films Production, Fundamental Films
Жанр: боевик, триллер, криминал
Год выпуска: 2015
Продолжительность: 01:35:54
Перевод: Дублированный (чистый звук)
Cубтитры: нет
Оригинальная аудиодорожка: английский
Режиссер: Камиль Деламарр/Camille Delamarre
В ролях: Эд Скрейн, Рэй Стивенсон, Лоан Шабаноль, Габриэлла Райт, Татьяна Пайкович, Венься Ю, Радивойе Буквич, Ноэми Ленуар, Юрий Колокольников, Ленн Кудрявицки
Описание: Фрэнк Мартин — самый высококвалифицированный перевозчик, которого только можно нанять за деньги. Ставки выше, технологии поднялись на более высокий уровень, но правила те же: никогда не изменять условия сделки, никаких имен и никогда не открывать груз. Когда Фрэнка нанимает хитроумная красотка Анна и ее три очаровательные сообщницы, он быстро выясняет, что его водят за нос. Анна и ее команда похитили его отца, чтобы заставить Фрэнка помочь им разобраться с группой безжалостных торговцев людьми.
Сэмпл: http://multi-up.com/1076359
Тип релиза: BDRip 720p
Контейнер: MKV
Видео: MPEG-4 AVC, 5014 kb/s, 1280x536
Аудио: Russian: AC3, 192 kb/s (2 ch) / English: DTS, 1510 kb/s (6 ch)

MediaInfo

Format : Matroska
Format version : Version 2
File size : 4.50 GiB
Duration : 1h 35mn
Overall bit rate : 6 713 Kbps
Encoded date : UTC 2015-11-21 17:58:04
Writing application : mkvmerge v7.8.0 ('River Man') 32bit built on Apr 3 2015 12:11:22
Writing library : libebml v1.3.1 + libmatroska v1.4.2
Video
ID : 1
Format : AVC
Format/Info : Advanced Video Codec
Format profile : High@L4.1
Format settings, CABAC : Yes
Format settings, ReFrames : 5 frames
Codec ID : V_MPEG4/ISO/AVC
Duration : 1h 35mn
Bit rate : 5 014 Kbps
Width : 1 280 pixels
Height : 536 pixels
Display aspect ratio : 2.40:1
Frame rate mode : Constant
Frame rate : 23.976 fps
Color space : YUV
Chroma subsampling : 4:2:0
Bit depth : 8 bits
Scan type : Progressive
Bits/(Pixel*Frame) : 0.305
Stream size : 3.27 GiB (73%)
Writing library : x264 core 148 r2597 e86f3a1
Encoding settings : cabac=1 / ref=5 / deblock=1:0:0 / analyse=0x3:0x133 / me=umh / subme=7 / psy=1 / psy_rd=1.00:0.00 / mixed_ref=1 / me_range=16 / chroma_me=1 / trellis=1 / 8x8dct=1 / cqm=0 / deadzone=21,11 / fast_pskip=0 / chroma_qp_offset=-2 / threads=17 / lookahead_threads=2 / sliced_threads=0 / nr=0 / decimate=1 / interlaced=0 / bluray_compat=0 / constrained_intra=0 / bframes=3 / b_pyramid=2 / b_adapt=1 / b_bias=0 / direct=1 / weightb=1 / open_gop=0 / weightp=2 / keyint=250 / keyint_min=23 / scenecut=40 / intra_refresh=0 / rc_lookahead=40 / rc=2pass / mbtree=1 / bitrate=5014 / ratetol=1.0 / qcomp=0.60 / qpmin=0 / qpmax=69 / qpstep=4 / cplxblur=20.0 / qblur=0.5 / ip_ratio=1.40 / aq=1:1.00
Language : English
Default : Yes
Forced : No
Audio #1
ID : 2
Format : AC-3
Format/Info : Audio Coding 3
Mode extension : CM (complete main)
Format settings, Endianness : Big
Codec ID : A_AC3
Duration : 1h 35mn
Bit rate mode : Constant
Bit rate : 192 Kbps
Channel(s) : 2 channels
Channel positions : Front: L R
Sampling rate : 48.0 KHz
Bit depth : 16 bits
Compression mode : Lossy
Stream size : 132 MiB (3%)
Language : Russian
Default : Yes
Forced : No
Audio #2
ID : 3
Format : DTS
Format/Info : Digital Theater Systems
Mode : 16
Format settings, Endianness : Big
Codec ID : A_DTS
Duration : 1h 35mn
Bit rate mode : Constant
Bit rate : 1 509 Kbps
Channel(s) : 6 channels
Channel positions : Front: L C R, Side: L R, LFE
Sampling rate : 48.0 KHz
Bit depth : 24 bits
Compression mode : Lossy
Stream size : 1.01 GiB (22%)
Language : English
Default : No
Forced : No
Text
ID : 4
Format : UTF-8
Codec ID : S_TEXT/UTF8
Codec ID/Info : UTF-8 Plain Text
Title : English-Forced
Language : English
Default : No
Forced : No
Menu
00:00:00.000 : en:00:00:00.000
00:03:29.042 : en:00:03:29.042
00:06:43.278 : en:00:06:43.278
00:11:22.599 : en:00:11:22.599
00:15:01.651 : en:00:15:01.651
00:20:21.512 : en:00:20:21.512
00:24:49.905 : en:00:24:49.905
00:27:03.664 : en:00:27:03.664
00:29:29.643 : en:00:29:29.643
00:32:56.600 : en:00:32:56.600
00:35:48.605 : en:00:35:48.605
00:37:35.879 : en:00:37:35.879
00:41:53.845 : en:00:41:53.845
00:48:09.887 : en:00:48:09.887
00:52:44.536 : en:00:52:44.536
00:57:42.793 : en:00:57:42.793
01:01:01.658 : en:01:01:01.658
01:06:43.541 : en:01:06:43.541
01:10:50.204 : en:01:10:50.204
01:13:06.048 : en:01:13:06.048
01:18:27.244 : en:01:18:27.244
01:20:18.397 : en:01:20:18.397
01:21:53.408 : en:01:21:53.408
01:24:16.885 : en:01:24:16.885
01:27:00.132 : en:01:27:00.132
01:28:45.070 : en:01:28:45.070
01:30:07.110 : en:01:30:07.110

Скриншоты

Display posts:    

Current time is: 03-Jul 20:40

All times are UTC ± 0


You cannot post new topics in this forum
You cannot reply to topics in this forum
You cannot edit your posts in this forum
You cannot delete your posts in this forum
You cannot vote in polls in this forum
You cannot attach files in this forum
You cannot download files in this forum

!ATTENTION!
The site does not give electronic versions of products, and is engaged only in a collecting and cataloguing of the references sent and published at a forum by our readers. If you are the legal owner of any submitted material and do not wish that the reference to it was in our catalogue, contact us and we shall immediately remove her. Files for an exchange on tracker are given by users of a site, and the administration does not bear the responsibility for their maintenance. The request to not fill in the files protected by copyrights, and also files of the illegal maintenance!