DL-List and Torrent activity
None
 
   
 
 

[Quote]
RUS_D

Слуга народа (2015) WEB-DLRip (серии 1-17 из 24) (обновляемая)
Страна: Украина
Студия: Студия "Квартал-95"
Жанр: политическая комедия
Год выпуска: 2015
Продолжительность: ~ 30мин /серия
Перевод: Не требуется
Cубтитры: нет
Оригинальная аудиодорожка: русский
Режиссер: Алексей Кирющенко
В ролях: Владимир Зеленский, Станислав Боклан, Юрий Крапов, Елена Кравец, Александр Пикалов, Степан Казанин, Наталья Сумская, Виктор Сарайкин, Екатерина Кистень, Анна Кошмал и др.
Описание:
Что будет, если президентом станет обычный человек из народа? Новый, честный, принципиальный и, самое главное, – умный человек. Именно эти мысли однажды сподвигли народ избрать президентом простого учителя истории Василия Голобородько... Неожиданно для всех страна получила гаранта, который живет в обычной квартире. Который спокойно идет по улице без армии охранников и запросто ездит на маршрутке, который получает скромную зарплату и иногда занимает у друга "до зарплаты". В общем, который живет – как все. Ведь он точно знает - когда "царь" начнет жить как простой учитель, вскоре простой учитель заживет как царь! И пускай у него нет серебряных пуль и осинового кола, каждое утро Василий Петрович выходит на борьбу с "нечистой силой" и без устали "воюет" с армадой коррумпированных и насквозь прогнивших чинуш, разгребает "авгиевы конюшни" государства. Правда, он не учел одного. Система, где все привыкли безбожно воровать, откатывать и дерибанить – будет против такой заботы о народе.
Внимание! Раздача ведётся путём добавления новых серий:
Внимание! Раздача ведётся путём добавления новых серий; при каждом добавлении создётся новый торрент. Чтобы начать докачку новой серии, пользователям необходимо сделать следующее:
(1) остановить скачивание,
(2) удалить старый торрент у себя из клиента (старые серии удалять не надо),
(3) скачать новый торрент и запустить его у себя в клиенте вместо старого, при этом указать клиенту путь в старую папку куда и должно происходить скачивание новых серий.
Ваш клиент при этом должен произвести хеширование (проверку) старой папки (если не производит сам - помогите ему сделать это), и будет докачивать только те серии которых у вас ещё нет. Старые серии при этом не удаляются, а продолжают раздаваться!
Eсли вы уже удалили старые серии, то предотвратить повторную закачку старых серий можно, отжав галочку в соответсвующих местах при запуске нового торрента. По возможности, желательно не удалять старые серии как можно дольше чтобы релизёр не столько продолжал раздавать старые серии, а смог сконцентрироваться на новых.
Сэмпл:
Тип релиза: WEB-DL 720p
Контейнер: DVD-Video
Видео: XVID, 720х400 (16:9), ~1800 kbps
Аудио: AC3, 2 ch, 192 kbps, CBR

MediaInfo

Общее
Полное имя : F:\DOWNLOADS\Слуга народа (2015) WEB-DLRip\Слуга народа - 01-02 серии.avi
Формат : AVI
Формат/Информация : Audio Video Interleave
Размер файла : 621 Мбайт
Продолжительность : 43 м.
Общий поток : 2002 Кбит/сек
Программа кодирования : VirtualDubMod 1.5.10.3 | www.virtualdub-fr.org || (build 2550/release)
Библиотека кодирования : VirtualDubMod build 2550/release
Видео
Идентификатор : 0
Формат : MPEG-4 Visual
Профиль формата : Advanced Simple@L5
Параметр BVOP формата : 1
Параметр QPel формата : Нет
Параметр GMC формата : Без точки перехода
Параметр матрицы формата : Default (MPEG)
Идентификатор кодека : XVID
Идентификатор кодека/Подсказка : XviD
Продолжительность : 43 м.
Битрейт : 1800 Кбит/сек
Ширина : 720 пикселей
Высота : 400 пикселей
Соотношение сторон : 16:9
Частота кадров : 25,000 кадров/сек
Цветовое пространство : YUV
Субдискретизация насыщенности : 4:2:0
Битовая глубина : 8 бит
Тип развёртки : Прогрессивная
Метод сжатия : С потерями
Бит/(Пиксели*Кадры) : 0.250
Размер потока : 559 Мбайт (90%)
Библиотека кодирования : XviD 73
Аудио
Идентификатор : 1
Формат : AC-3
Формат/Информация : Audio Coding 3
Расширение режима : CM (complete main)
Параметр Endianness формата : Big
Идентификатор кодека : 2000
Продолжительность : 43 м.
Вид битрейта : Постоянный
Битрейт : 192 Кбит/сек
Каналы : 2 канала
Расположение каналов : Front: L R
Частота : 44,1 КГц
Метод сжатия : С потерями
Размер потока : 59,6 Мбайт (10%)
Выравнивание : Разделение по промежуткам
Продолжительность промежутка : 40 мс. (1,00 видеокадр)
Время предзагрузки промежутка : 500 мс.

Скриншоты




Last edited by RUS_D on 2015-12-01 19:07; edited 4 times in total

[Quote]
RUS_D

Обновил раздачу - добавил серии 1-14
Просьба перекачать торент

[Quote]
RUS_D

Добавил еще три серии - теперь 17.
Перекачайте торент.
Display posts:    

Current time is: 12-Aug 01:27

All times are UTC ± 0


You cannot post new topics in this forum
You cannot reply to topics in this forum
You cannot edit your posts in this forum
You cannot delete your posts in this forum
You cannot vote in polls in this forum
You cannot attach files in this forum
You cannot download files in this forum

!ATTENTION!
The site does not give electronic versions of products, and is engaged only in a collecting and cataloguing of the references sent and published at a forum by our readers. If you are the legal owner of any submitted material and do not wish that the reference to it was in our catalogue, contact us and we shall immediately remove her. Files for an exchange on tracker are given by users of a site, and the administration does not bear the responsibility for their maintenance. The request to not fill in the files protected by copyrights, and also files of the illegal maintenance!