DL-List and Torrent activity
None
 
   
 
 

[Quote]
Sashok

Выхода нет / No Escape
Страна: США
Студия: Bold Films, Brothers Dowdle Productions, Living Films
Жанр: боевик, триллер
Год выпуска: 2015
Продолжительность: 01:43:07
Перевод: Дублированный (чистый звук)
Cубтитры: английские
Оригинальная аудиодорожка: английский
Режиссер: Джон Эрик Даудл/John Erick Dowdle
В ролях: Оуэн Уилсон, Лэйк Белл, Пирс Броснан, Стерлинг Джеринс, Тханавут Касро, Чатчаваи Камонсакпитак, Сахайак Бунсанакит, Танапол Чуксрида, Нопханд Буньяй, Канарпат Финтиянг
Описание: Семья техасского инженера Джека Двайера прилетает в неназванную азиатскую страну. Главу семейства ожидает работа в солидной инжиниринговой корпорации, новая карьера и заманчивые перспективы. Но переехавшая в поисках лучшей жизни на другой край света американская семья оказывается в огне охватившего страну военного переворота. Как далеко сможет зайти загнанный в угол человек, чтобы спасти жену и детей от вооруженных радикалов, объявивших охоту на непрошенных гостей-иностранцев?
Сэмпл: http://multi-up.com/1076673
Тип релиза: BDRip 720p
Контейнер: MKV
Видео: MPEG-4 AVC, 8402 kb/s, 1280x692
Аудио: Russian: AC3, 128 kb/s (2 ch) / Russian: DTS, 1510 kb/s (6 ch)

MediaInfo

Format : Matroska
Format version : Version 4 / Version 2
File size : 7.40 GiB
Duration : 1h 43mn
Overall bit rate : 10.3 Mbps
Encoded date : UTC 2015-11-24 11:37:43
Writing application : mkvmerge v8.3.0 ('Over the Horizon') 64bit
Writing library : libebml v1.3.1 + libmatroska v1.4.2
DURATION : 01:43:01.686000000
NUMBER_OF_FRAMES : 177482
NUMBER_OF_BYTES : 98906816
_STATISTICS_WRITING_APP : mkvmerge v8.3.0 ('Over the Horizon') 64bit
_STATISTICS_WRITING_DATE_UTC : 2015-11-24 11:37:43
_STATISTICS_TAGS : BPS DURATION NUMBER_OF_FRAMES NUMBER_OF_BYTES
Video
ID : 1
Format : AVC
Format/Info : Advanced Video Codec
Format profile : High@L4.1
Format settings, CABAC : Yes
Format settings, ReFrames : 9 frames
Codec ID : V_MPEG4/ISO/AVC
Duration : 1h 43mn
Width : 1 280 pixels
Height : 692 pixels
Display aspect ratio : 1.85:1
Frame rate mode : Constant
Frame rate : 23.976 fps
Color space : YUV
Chroma subsampling : 4:2:0
Bit depth : 8 bits
Scan type : Progressive
Writing library : x264 core 146 r2538 121396c
Encoding settings : cabac=1 / ref=9 / deblock=1:-3:-3 / analyse=0x3:0x133 / me=umh / subme=10 / psy=1 / psy_rd=1.05:0.00 / mixed_ref=1 / me_range=24 / chroma_me=1 / trellis=2 / 8x8dct=1 / cqm=0 / deadzone=21,11 / fast_pskip=1 / chroma_qp_offset=-2 / threads=12 / lookahead_threads=2 / sliced_threads=0 / nr=0 / decimate=1 / interlaced=0 / bluray_compat=0 / constrained_intra=0 / bframes=8 / b_pyramid=2 / b_adapt=2 / b_bias=0 / direct=3 / weightb=1 / open_gop=0 / weightp=2 / keyint=250 / keyint_min=23 / scenecut=40 / intra_refresh=0 / rc=crf / mbtree=0 / crf=16.7 / qcomp=0.75 / qpmin=0 / qpmax=69 / qpstep=4 / ip_ratio=1.40 / pb_ratio=1.30 / aq=3:0.70 / zones=69044,137080,crf=14.5
Default : Yes
Forced : No
Matrix coefficients : BT.709
DURATION : 01:43:06.681000000
NUMBER_OF_FRAMES : 148332
NUMBER_OF_BYTES : 6627856546
_STATISTICS_WRITING_APP : mkvmerge v8.3.0 ('Over the Horizon') 64bit
_STATISTICS_WRITING_DATE_UTC : 2015-11-24 11:37:43
_STATISTICS_TAGS : BPS DURATION NUMBER_OF_FRAMES NUMBER_OF_BYTES
Audio #1
ID : 2
Format : AC-3
Format/Info : Audio Coding 3
Mode extension : CM (complete main)
Format settings, Endianness : Big
Codec ID : A_AC3
Duration : 1h 43mn
Bit rate mode : Constant
Bit rate : 128 Kbps
Channel(s) : 2 channels
Channel positions : Front: L R
Sampling rate : 44.1 KHz
Bit depth : 16 bits
Compression mode : Lossy
Stream size : 94.4 MiB (1%)
Language : Russian
Default : Yes
Forced : No
Audio #2
ID : 3
Format : DTS
Format/Info : Digital Theater Systems
Mode : 16
Format settings, Endianness : Big
Codec ID : A_DTS
Duration : 1h 43mn
Bit rate mode : Constant
Bit rate : 1 509 Kbps
Channel(s) : 6 channels
Channel positions : Front: L C R, Side: L R, LFE
Sampling rate : 48.0 KHz
Bit depth : 24 bits
Compression mode : Lossy
Stream size : 1.09 GiB (15%)
Language : English
Default : No
Forced : No
Audio #3
ID : 4
Format : AAC
Format/Info : Advanced Audio Codec
Format profile : HE-AAC / LC
Codec ID : A_AAC
Duration : 1h 43mn
Channel(s) : 2 channels
Channel positions : Front: L R
Sampling rate : 48.0 KHz / 24.0 KHz
Compression mode : Lossy
Delay relative to video : 31ms
Title : Commentary By Director John Erick Dowdle and Procedure Drew Dowdle
Language : English
Default : No
Forced : No
Text #1
ID : 5
Format : UTF-8
Codec ID : S_TEXT/UTF8
Codec ID/Info : UTF-8 Plain Text
Language : English
Default : No
Forced : No
Text #2
ID : 6
Format : UTF-8
Codec ID : S_TEXT/UTF8
Codec ID/Info : UTF-8 Plain Text
Title : SDH
Language : English
Default : No
Forced : No
Menu
00:00:00.000 : en:Chapter 1
00:04:10.041 : en:Chapter 2
00:10:57.866 : en:Chapter 3
00:18:40.703 : en:Chapter 4
00:25:31.447 : en:Chapter 5
00:34:40.787 : en:Chapter 6
00:40:04.360 : en:Chapter 7
00:46:11.310 : en:Chapter 8
00:52:06.498 : en:Chapter 9
00:57:36.828 : en:Chapter 10
01:03:55.790 : en:Chapter 11
01:11:22.487 : en:Chapter 12
01:18:58.651 : en:Chapter 13
01:25:01.471 : en:Chapter 14
01:31:11.383 : en:Chapter 15
01:37:38.978 : en:Chapter 16

Скриншоты

Display posts:    

Current time is: 07-Jul 18:22

All times are UTC ± 0


You cannot post new topics in this forum
You cannot reply to topics in this forum
You cannot edit your posts in this forum
You cannot delete your posts in this forum
You cannot vote in polls in this forum
You cannot attach files in this forum
You cannot download files in this forum

!ATTENTION!
The site does not give electronic versions of products, and is engaged only in a collecting and cataloguing of the references sent and published at a forum by our readers. If you are the legal owner of any submitted material and do not wish that the reference to it was in our catalogue, contact us and we shall immediately remove her. Files for an exchange on tracker are given by users of a site, and the administration does not bear the responsibility for their maintenance. The request to not fill in the files protected by copyrights, and also files of the illegal maintenance!