DL-List and Torrent activity
None
 
   
 
 

[Quote]
Sashok

Марсианин / The Martian
Страна: США
Студия: Twentieth Century Fox Film Corporation
Жанр: фантастика, приключения
Год выпуска: 2015
Продолжительность: 02:21:51
Перевод: Дублированный (Чистый звук)
Cубтитры: нет
Оригинальная аудиодорожка: английский
Режиссер: Ридли Скотт
В ролях: Мэтт Дэймон, Джессика Честейн, Чиветель Эджиофор, Кристен Уиг, Джефф Дэниелс, Майкл Пенья, Шон Бин, Кейт Мара, Себастьян Стэн, Аксель Хенни
Описание: Марсианская миссия «Арес-3» в процессе работы была вынуждена экстренно покинуть планету из-за надвигающейся песчаной бури. Инженер и биолог Марк Уотни получил повреждение скафандра во время песчаной бури. Сотрудники миссии, посчитав его погибшим, эвакуировались с планеты, оставив Марка одного. Очнувшись, Уотни обнаруживает, что связь с Землёй отсутствует, но при этом полностью функционирует жилой модуль. Главный герой начинает искать способ продержаться на имеющихся запасах еды, витаминов, воды и воздуха ещё 4 года до прилёта следующей миссии «Арес-4».
Сэмпл: http://multi-up.com/1080693
Тип релиза: WEB-DL 720p
Контейнер: MKV
Видео: MPEG-4 AVC, 3868 kb/s, 1280x532
Аудио: Russian: AC3, 192 kb/s (2 ch) / English: AC3, 384 kb/s (6 ch)

MediaInfo

Format : Matroska
Format version : Version 2
File size : 4.49 GiB
Duration : 2h 21mn
Overall bit rate : 4 534 Kbps
Encoded date : UTC 2015-12-23 15:32:08
Writing application : mkvmerge v7.8.0 ('River Man') 32bit built on Apr 3 2015 12:11:22
Writing library : libebml v1.3.1 + libmatroska v1.4.2
Video
ID : 1
Format : AVC
Format/Info : Advanced Video Codec
Format profile : Main@L3.1
Format settings, CABAC : No
Format settings, ReFrames : 2 frames
Codec ID : V_MPEG4/ISO/AVC
Duration : 2h 21mn
Bit rate : 3 868 Kbps
Width : 1 280 pixels
Height : 532 pixels
Display aspect ratio : 2.40:1
Frame rate mode : Constant
Frame rate : 23.976 fps
Color space : YUV
Chroma subsampling : 4:2:0
Bit depth : 8 bits
Scan type : Progressive
Bits/(Pixel*Frame) : 0.237
Stream size : 3.83 GiB (85%)
Language : English
Default : Yes
Forced : No
Color range : Limited
Color primaries : BT.709
Transfer characteristics : BT.709
Matrix coefficients : BT.709
Audio #1
ID : 2
Format : AC-3
Format/Info : Audio Coding 3
Mode extension : CM (complete main)
Format settings, Endianness : Big
Codec ID : A_AC3
Duration : 2h 21mn
Bit rate mode : Constant
Bit rate : 192 Kbps
Channel(s) : 2 channels
Channel positions : Front: L R
Sampling rate : 48.0 KHz
Bit depth : 16 bits
Compression mode : Lossy
Stream size : 195 MiB (4%)
Language : Russian
Default : Yes
Forced : No
Audio #2
ID : 3
Format : AC-3
Format/Info : Audio Coding 3
Mode extension : CM (complete main)
Format settings, Endianness : Big
Codec ID : A_AC3
Duration : 2h 21mn
Bit rate mode : Constant
Bit rate : 384 Kbps
Channel(s) : 6 channels
Channel positions : Front: L C R, Side: L R, LFE
Sampling rate : 48.0 KHz
Bit depth : 16 bits
Compression mode : Lossy
Stream size : 390 MiB (8%)
Language : English
Default : No
Forced : No
Menu
00:00:00.000 : en:1
00:03:21.000 : en:2
00:10:07.000 : en:3
00:15:22.000 : en:4
00:18:23.000 : en:5
00:21:32.000 : en:6
00:24:25.000 : en:7
00:28:49.000 : en:8
00:31:33.000 : en:9
00:34:18.000 : en:10
00:39:10.000 : en:11
00:41:18.000 : en:12
00:46:19.000 : en:13
00:49:21.000 : en:14
00:56:11.000 : en:15
00:59:35.000 : en:16
01:02:19.000 : en:17
01:06:48.000 : en:18
01:09:47.000 : en:19
01:13:45.000 : en:20
01:18:32.000 : en:21
01:22:46.000 : en:22
01:30:34.000 : en:23
01:37:23.000 : en:24
01:43:24.000 : en:25
01:46:08.000 : en:26
01:50:11.000 : en:27
01:54:00.000 : en:28
01:57:41.000 : en:29
02:04:33.000 : en:30
02:10:56.000 : en:31
02:13:19.000 : en:32

Скриншоты

[Quote]
RUS_D

Посмотрим.
Демку глядел - хороший фильм.

[Quote]
Avandsan

Да отличный...хоть как любят американцы слезно патриотический местами...сама история
Отличная и снято классно. После просмотра решил книгу прочитать сравнить

[Quote]
LENA_D

Avandsan, Тоже понравился фильм?
После просмотра решил книгу прочитать сравнить
А какие книги ещё читаешь?
Display posts:    

Current time is: 12-Aug 01:12

All times are UTC ± 0


You cannot post new topics in this forum
You cannot reply to topics in this forum
You cannot edit your posts in this forum
You cannot delete your posts in this forum
You cannot vote in polls in this forum
You cannot attach files in this forum
You cannot download files in this forum

!ATTENTION!
The site does not give electronic versions of products, and is engaged only in a collecting and cataloguing of the references sent and published at a forum by our readers. If you are the legal owner of any submitted material and do not wish that the reference to it was in our catalogue, contact us and we shall immediately remove her. Files for an exchange on tracker are given by users of a site, and the administration does not bear the responsibility for their maintenance. The request to not fill in the files protected by copyrights, and also files of the illegal maintenance!