Статистика раздачи
Нет
 
   
 
 

[Цитировать]
Sashok

Хитмэн: Агент 47 / Hitman: Agent 47
Страна: Германия, США
Студия: Twentieth Century Fox Film Corporation, TSG Entertainment, Fox International Productions
Жанр: боевик, триллер, криминал
Год выпуска: 2015
Продолжительность: 01:36:12
Перевод: Дублированный [Чистый звук]
Оригинальная аудиодорожка: английский
Режиссер: Александр Бах
В ролях: Руперт Френд, Анджела Бейби, Дэн Баккедаль, Шарлин Бек, Михаэль Борнхюттер, Нильс Брункхорст, Михаэлла Каспар, Майкл Коркоран
Описание: История об элитном убийце, созданном при помощи генной инженерии, который объединяется с женщиной, чтобы помочь ей найти отца и раскрыть тайну своего происхождения.
Сэмпл: http://multi-up.com/1072951
Тип релиза: WEBRip 1080р
Контейнер: MKV
Видео: MPEG-4 AVC, 4218 Кбит/с, 1920x1080
Аудио: Русский (AC3, 2 ch, 192 Кбит/с), английский (AC3, 2 ch, 256 Кбит/с)

MediaInfo

Format : Matroska
Format version : Version 2
File size : 3.20 GiB
Duration : 1h 36mn
Overall bit rate : 4 762 Kbps
Movie name : Хитмэн.Агент.47.2015.WEBRip.[1080p].nnm-club
Encoded date : UTC 2015-10-25 17:27:21
Writing application : mkvmerge v8.3.0 ('Over the Horizon') 64bit
Writing library : libebml v1.3.1 + libmatroska v1.4.2
DURATION : 01:36:12.192000000
NUMBER_OF_FRAMES : 180381
NUMBER_OF_BYTES : 138532608
_STATISTICS_WRITING_APP : mkvmerge v8.3.0 ('Over the Horizon') 64bit
_STATISTICS_WRITING_DATE_UTC : 2015-10-25 17:27:21
_STATISTICS_TAGS : BPS DURATION NUMBER_OF_FRAMES NUMBER_OF_BYTES
Video
ID : 1
Format : AVC
Format/Info : Advanced Video Codec
Format profile : High@L4.0
Format settings, CABAC : Yes
Format settings, ReFrames : 4 frames
Codec ID : V_MPEG4/ISO/AVC
Duration : 1h 36mn
Bit rate : 4 219 Kbps
Width : 1 920 pixels
Height : 1 080 pixels
Display aspect ratio : 16:9
Frame rate mode : Constant
Frame rate : 29.970 fps
Color space : YUV
Chroma subsampling : 4:2:0
Bit depth : 8 bits
Scan type : Progressive
Bits/(Pixel*Frame) : 0.068
Stream size : 2.84 GiB (89%)
Title : Хитмэн.Агент.47.2015.WEBRip.[1080p].nnm-club.mkv
Writing library : x264 core 148 r2597M e86f3a1
Encoding settings : cabac=1 / ref=4 / deblock=1:0:0 / analyse=0x3:0x113 / me=umh / subme=8 / psy=1 / psy_rd=1.00:0.00 / mixed_ref=1 / me_range=16 / chroma_me=1 / trellis=1 / 8x8dct=1 / cqm=0 / deadzone=21,11 / fast_pskip=1 / chroma_qp_offset=-2 / threads=40 / lookahead_threads=8 / sliced_threads=0 / nr=0 / decimate=1 / interlaced=0 / bluray_compat=0 / constrained_intra=0 / bframes=3 / b_pyramid=2 / b_adapt=2 / b_bias=0 / direct=3 / weightb=1 / open_gop=0 / weightp=2 / keyint=250 / keyint_min=25 / scenecut=40 / intra_refresh=0 / rc_lookahead=50 / rc=crf / mbtree=1 / crf=22.0 / qcomp=0.60 / qpmin=0 / qpmax=69 / qpstep=4 / ip_ratio=1.40 / aq=1:1.00
Default : Yes
Forced : No
Audio #1
ID : 2
Format : AC-3
Format/Info : Audio Coding 3
Mode extension : CM (complete main)
Format settings, Endianness : Big
Codec ID : A_AC3
Duration : 1h 36mn
Bit rate mode : Constant
Bit rate : 192 Kbps
Channel(s) : 2 channels
Channel positions : Front: L R
Sampling rate : 48.0 KHz
Bit depth : 16 bits
Compression mode : Lossy
Delay relative to video : -35ms
Stream size : 132 MiB (4%)
Title : Line
Language : Russian
Default : Yes
Forced : No
Audio #2
ID : 3
Format : AC-3
Format/Info : Audio Coding 3
Mode extension : CM (complete main)
Format settings, Endianness : Big
Codec ID : A_AC3
Duration : 1h 36mn
Bit rate mode : Constant
Bit rate : 256 Kbps
Channel(s) : 2 channels
Channel positions : Front: L R
Sampling rate : 48.0 KHz
Bit depth : 16 bits
Compression mode : Lossy
Delay relative to video : -35ms
Stream size : 176 MiB (5%)
Title : Original
Language : English
Default : No
Forced : No

Скриншоты

Показать сообщения:    

Текущее время: 26-Июл 14:53

Часовой пояс: UTC ± 0


Вы не можете начинать темы
Вы не можете отвечать на сообщения
Вы не можете редактировать свои сообщения
Вы не можете удалять свои сообщения
Вы не можете голосовать в опросах
Вы не можете прикреплять файлы к сообщениям
Вы не можете скачивать файлы

!ВНИМАНИЕ!
Сайт не предоставляет электронные версии произведений, а занимается лишь коллекционированием и каталогизацией ссылок, присылаемых и публикуемых на форуме нашими читателями. Если вы являетесь правообладателем какого-либо представленного материала и не желаете, чтобы ссылка на него находилась в нашем каталоге, свяжитесь с нами, и мы незамедлительно удалим ее. Файлы для обмена на трекере предоставлены пользователями сайта, и администрация не несет ответственности за их содержание. Просьба не заливать файлы, защищенные авторскими правами, а также файлы нелегального содержания!