DL-List and Torrent activity
None
 
   
 
 

[Quote]
Sashok

Последний охотник на ведьм / The Last Witch Hunter
Страна: США, Китай, Канада
Студия: Aperture Entertainment, Atmosphere Entertainment MM, Goldmann Pictures, NeoReel
Жанр: фэнтези, боевик, приключения
Год выпуска: 2015
Продолжительность: 01:46:26
Перевод: Профессиональный (дублированный) iTunes Russia
Cубтитры: нет
Оригинальная аудиодорожка: английский
Режиссер: Брек Эйснер
В ролях: Вин Дизель, Роуз Лесли, Элайджа Вуд, Оулавюр Дарри Оулафссон, Рина Оуэн, Юли Энгельбрехт, Майкл Кейн, Джозеф Гилган, Исаак Де Банколе, Майкл Халсли
Описание: Современный мир скрывает множество секретов, но самым удивительным из них является то, что ведьмы до сих пор живут среди нас. Это злобные сверхъестественные существа, чья цель — наслать на мир смертоносную чуму. Армии охотников на ведьм сражались с ними на протяжении многих веков.
В наши дни остался всего лишь один охотник на ведьм, Колдер, которому однажды удалось убить всемогущую королеву ведьм. Но Колдер еще не знает, что королева воскресла и жаждет отомстить своему убийце…
Тип релиза: WEB-DL 1080p
Контейнер: MKV
Видео: 1920x1080 at 24.000 fps, MPEG-4 AVC, ~5000 kbps avg
Аудио: Russian: 48 kHz, AC3, 3/2 (L,C,R,l,r) + LFE ch, ~384.00 kbps avg |Дубляж, iTunes Russia|

MediaInfo

Полное имя : The.Last.Witch.Hunter.2015.D.WEB-DL.1080p.mkv
Формат : Matroska
Версия формата : Version 4 / Version 2
Размер файла : 3,97 Гбайт
Продолжительность : 1 ч. 46 м.
Общий поток : 5340 Кбит/сек
Дата кодирования : UTC 2016-01-11 19:55:20
Программа кодирования : mkvmerge v6.5.0 ('Isn't she lovely') built on Oct 20 2013 12:50:05
Библиотека кодирования : libebml v1.3.0 + libmatroska v1.4.1
Видео
Идентификатор : 1
Формат : AVC
Формат/Информация : Advanced Video Codec
Профиль формата : High@L4
Параметр CABAC формата : Да
Параметр ReFrames формата : 4 кадра
Идентификатор кодека : V_MPEG4/ISO/AVC
Продолжительность : 1 ч. 46 м.
Битрейт : 4849 Кбит/сек
Ширина : 1920 пикселей
Высота : 1080 пикселей
Соотношение сторон : 16:9
Режим частоты кадров : Постоянный
Частота кадров : 24,000 кадра/сек
Цветовое пространство : YUV
Субдискретизация насыщенности : 4:2:0
Битовая глубина : 8 бит
Тип развёртки : Прогрессивная
Бит/(Пиксели*Кадры) : 0.097
Размер потока : 3,61 Гбайт (91%)
Язык : English
Default : Да
Forced : Нет
Цветовой диапазон : Limited
Основные цвета : BT.709
Характеристики трансфера : BT.709
Коэффициенты матрицы : BT.709
Аудио
Идентификатор : 2
Формат : AC-3
Формат/Информация : Audio Coding 3
Расширение режима : CM (complete main)
Параметр Endianness формата : Big
Идентификатор кодека : A_AC3
Продолжительность : 1 ч. 46 м.
Вид битрейта : Постоянный
Битрейт : 384 Кбит/сек
Каналы : 6 каналов
Расположение каналов : Front: L C R, Side: L R, LFE
Частота : 48,0 КГц
Метод сжатия : С потерями
Размер потока : 292 Мбайт (7%)
Язык : Russian
Default : Да
Forced : Нет
Меню
00:00:00.000 : en:Глава 1
00:05:21.000 : en:Глава 2
00:12:06.000 : en:Глава 3
00:18:03.000 : en:Глава 4
00:25:15.000 : en:Глава 5
00:30:58.000 : en:Глава 6
00:36:21.000 : en:Глава 7
00:42:57.000 : en:Глава 8
00:49:17.000 : en:Глава 9
00:54:59.000 : en:Глава 10
01:00:28.000 : en:Глава 11
01:05:48.000 : en:Глава 12
01:12:07.000 : en:Глава 13
01:17:47.000 : en:Глава 14
01:23:42.000 : en:Глава 15
01:29:42.000 : en:Глава 16
01:35:48.000 : en:Глава 17

Скриншоты

Display posts:    

Current time is: 09-Jul 21:32

All times are UTC ± 0


You cannot post new topics in this forum
You cannot reply to topics in this forum
You cannot edit your posts in this forum
You cannot delete your posts in this forum
You cannot vote in polls in this forum
You cannot attach files in this forum
You cannot download files in this forum

!ATTENTION!
The site does not give electronic versions of products, and is engaged only in a collecting and cataloguing of the references sent and published at a forum by our readers. If you are the legal owner of any submitted material and do not wish that the reference to it was in our catalogue, contact us and we shall immediately remove her. Files for an exchange on tracker are given by users of a site, and the administration does not bear the responsibility for their maintenance. The request to not fill in the files protected by copyrights, and also files of the illegal maintenance!