DL-List and Torrent activity
None
 
   
 
 

[Quote]
Sashok

007: СПЕКТР / Spectre
Страна: Великобритания, США
Студия: B24, Columbia Pictures, Danjaq
Жанр: боевик, триллер, приключения
Год выпуска: 2015
Продолжительность: 02:28:07
Перевод: Профессиональный (дублированный)
Cубтитры: русские
Режиссер: Сэм Мендес
В ролях: Дэниэл Крэйг, Кристоф Вальц, Леа Сейду, Рэйф Файнс, Моника Беллуччи, Бен Уишоу, Наоми Харрис, Дэйв Батиста, Эндрю Скотт, Рори Киннер
Описание: Зашифрованное послание из неизвестного источника выводит Бонда на след зловещей глобальной организации под кодовым названием СПЕКТР, в то время как М пытается спасти секретную разведывательную службу от ликвидации.
Доп. информация: Релиз без рекламы.
Тип релиза: BDRip 720p
Контейнер: MKV
Видео: MPEG-4 AVC, 4650 kb/s, 1280x536
Аудио: Russian: AC3, 192 kb/s (2 ch) / French: AC3, 448 kb/s (6 ch)

MediaInfo

Format : Matroska
Format version : Version 2
File size : 5.58 GiB
Duration : 2h 28mn
Overall bit rate : 5 397 Kbps
Encoded date : UTC 2016-01-18 15:17:09
Writing application : mkvmerge v7.8.0 ('River Man') 32bit built on Apr 3 2015 12:11:22
Writing library : libebml v1.3.1 + libmatroska v1.4.2
Video
ID : 1
Format : AVC
Format/Info : Advanced Video Codec
Format profile : High@L4.1
Format settings, CABAC : Yes
Format settings, ReFrames : 12 frames
Codec ID : V_MPEG4/ISO/AVC
Duration : 2h 28mn
Bit rate : 4 650 Kbps
Width : 1 280 pixels
Height : 536 pixels
Display aspect ratio : 2.40:1
Frame rate mode : Constant
Frame rate : 23.976 fps
Color space : YUV
Chroma subsampling : 4:2:0
Bit depth : 8 bits
Scan type : Progressive
Bits/(Pixel*Frame) : 0.283
Stream size : 4.81 GiB (86%)
Writing library : x264 core 142 r2431+42 c69a006 tMod [8-bit@all X86_64]
Encoding settings : cabac=1 / ref=12 / deblock=1:-3:-3 / analyse=0x3:0x133 / me=umh / subme=11 / psy=1 / fade_compensate=0.00 / psy_rd=1.05:1.00 / mixed_ref=1 / me_range=32 / chroma_me=1 / trellis=2 / 8x8dct=1 / cqm=0 / deadzone=21,11 / fast_pskip=0 / chroma_qp_offset=-4 / threads=12 / lookahead_threads=2 / sliced_threads=0 / nr=0 / decimate=0 / interlaced=0 / bluray_compat=0 / constrained_intra=0 / fgo=0 / bframes=8 / b_pyramid=2 / b_adapt=2 / b_bias=0 / direct=3 / weightb=1 / open_gop=0 / weightp=2 / keyint=240 / keyint_min=23 / scenecut=40 / intra_refresh=0 / rc_lookahead=60 / rc=crf / mbtree=0 / crf=18.5000 / qcomp=0.60 / qpmin=0:0:0 / qpmax=69:69:69 / qpstep=4 / vbv_maxrate=40000 / vbv_bufsize=30000 / crf_max=0.0 / nal_hrd=none / filler=0 / ip_ratio=1.40 / pb_ratio=1.30 / aq=1:1.00 / aq-sensitivity=10.00 / aq-factor=1.00:1.00:1.00 / aq2=0 / aq3=0
Language : English
Default : Yes
Forced : No
Audio #1
ID : 2
Format : AC-3
Format/Info : Audio Coding 3
Mode extension : CM (complete main)
Format settings, Endianness : Big
Codec ID : A_AC3
Duration : 2h 28mn
Bit rate mode : Constant
Bit rate : 192 Kbps
Channel(s) : 2 channels
Channel positions : Front: L R
Sampling rate : 48.0 KHz
Bit depth : 16 bits
Compression mode : Lossy
Stream size : 203 MiB (4%)
Language : Russian
Default : Yes
Forced : No
Audio #2
ID : 3
Format : AC-3
Format/Info : Audio Coding 3
Mode extension : CM (complete main)
Format settings, Endianness : Big
Codec ID : A_AC3
Duration : 2h 28mn
Bit rate mode : Constant
Bit rate : 448 Kbps
Channel(s) : 6 channels
Channel positions : Front: L C R, Side: L R, LFE
Sampling rate : 48.0 KHz
Bit depth : 16 bits
Compression mode : Lossy
Stream size : 475 MiB (8%)
Language : French
Default : No
Forced : No
Text
ID : 4
Format : UTF-8
Codec ID : S_TEXT/UTF8
Codec ID/Info : UTF-8 Plain Text
Language : Russian
Default : No
Forced : No
Menu
00:00:00.000 : en:Chapter 01
00:06:09.118 : en:Chapter 03
00:13:04.784 : en:Chapter 05
00:18:58.470 : en:Chapter 07
00:24:46.776 : en:Chapter 09
00:28:04.057 : en:Chapter 11
00:32:15.558 : en:Chapter 13
00:36:58.591 : en:Chapter 15
00:41:56.639 : en:Chapter 17
00:46:13.145 : en:Chapter 19
00:50:51.923 : en:Chapter 21
00:53:43.220 : en:Chapter 23
01:00:21.367 : en:Chapter 25
01:06:48.212 : en:Chapter 27
01:10:58.963 : en:Chapter 29
01:15:14.092 : en:Chapter 31
01:18:55.647 : en:Chapter 33
01:26:11.040 : en:Chapter 35
01:29:39.999 : en:Chapter 37
01:36:43.547 : en:Chapter 39
01:41:44.389 : en:Chapter 41
01:49:06.414 : en:Chapter 43
01:55:52.820 : en:Chapter 45
01:59:39.213 : en:Chapter 47
02:04:19.743 : en:Chapter 49
02:09:28.510 : en:Chapter 51
02:14:05.662 : en:Chapter 53
02:19:42.374 : en:Chapter 55
02:28:06.627 : en:Chapter 56

Скриншоты

Display posts:    

Current time is: 14-Jul 12:33

All times are UTC ± 0


You cannot post new topics in this forum
You cannot reply to topics in this forum
You cannot edit your posts in this forum
You cannot delete your posts in this forum
You cannot vote in polls in this forum
You cannot attach files in this forum
You cannot download files in this forum

!ATTENTION!
The site does not give electronic versions of products, and is engaged only in a collecting and cataloguing of the references sent and published at a forum by our readers. If you are the legal owner of any submitted material and do not wish that the reference to it was in our catalogue, contact us and we shall immediately remove her. Files for an exchange on tracker are given by users of a site, and the administration does not bear the responsibility for their maintenance. The request to not fill in the files protected by copyrights, and also files of the illegal maintenance!