DL-List and Torrent activity
None
 
   
 
 

[Quote]
Eshelhon

Перекресток 1968г. / Перекресток (Crossroads) 1986
Жанр: Приключения, Музыка, Блюз, Драма
Год выпуска: 1986
Продолжительность: 1:37:16
Режиссёр: Уолтер Хилл
В ролях: Ральф Мачио — Юджин Мартон
Джо Сенека — Вилли Браун
Джейми Гертц — Фрэнсис
Роберт Джадд — Старина Скрэтч (Дьявол)
Стив Вай — Джек Батлер
Описание: Начинающий и честолюбивый гитарист Юджин, влюблённый в блюз, старается быть похожим на своих кумиров и стать настоящим блюзменом. Парень узнаёт легенду о потерянной мелодии Роберта Джонсона. Чтобы разыскать её, юноша устраивается уборщиком в дом престарелых, где по его сведениям доживает свой век близкий друг Роберта — Вилли (Джо Сенека).
В молодости Вилли вышел на тот самый перекрёсток, что и Роберт Джонсон, и заключил сделку с дьяволом: душа в обмен на славу и успех музыканта. Сделки со Стариной Скрэтчем (так зовут дьявола в этом фильме) мало кому удавалось выиграть, и теперь старик хочет попасть на это волшебное место, чтобы вернуть свою душу и обрести покой.
Старик и начинающий музыкант договариваются: юноша помогает Вилли бежать из богадельни и добраться на «перекрёсток» в обмен на обещание сыграть ему ту самую мелодию. Так начинается их нелёгкое путешествие через всю страну. Много испытаний и приключений ждут их на пути.
Доп. информация:
В финале фильма Уолтер Хилл показал гитарную дуэль между молодым музыкантом и гитаристом, заключившим контракт с дьяволом, в роли которого снялся виртуозный гитарист Стив Вай.
Композитором выступил Рай Кудер, который сам играет в фильме на блюз-гитаре.
В поединке Юджин играет произведение Каприс № 5 Паганини.
Партию слайд-гитары в начале дуэли и все музыкальные партии Юджина, кроме Каприса, в фильме исполняет Рай Кудер. Каприс сыграл Стив Вай — за себя и за Юджина.
Именно об этом фильме упоминает Чиж в своей песне «Перекрёсток», интерпретируя произнесённые в нём слова: «Когда уходит любовь, остаётся блюз».
Посредник дьявола, которому Вилли продал душу, является вудуистским духом — лоа Легбой.
Перед гитарной дуэлью Вилли передаёт Юджину талисман гри-гри.
Американский блюзмен Вилли Браун действительно жил в Кливленде и был одним из учителей Роберта Джонсона. Однако, в отличие от персонажа фильма, он не сидел в тюрьме и умер в 1952-м году, то есть задолго до событий, описанных в фильме.
Сэмпл: http://multi-up.com/1073102
Качество видео: DVDRip
Формат видео: MP4
Видео: Кодек: H264 - MPEG-4 AVC 1280x738 23,97fps
Аудио: Звук: MPEG AAC Audio (mp4a) стерео 44100 Гц

MediaInfo

Общее
Полное имя : C:\Users\Eshelhon\Videos\Перекресток Crossroads (1986).mp4
Формат : MPEG-4
Профиль формата : Base Media
Идентификатор кодека : isom
Размер файла : 1,28 Гбайт
Продолжительность : 1 ч. 37 м.
Режим общего битрейта : Переменный
Общий поток : 1879 Кбит/сек
Дата кодирования : UTC 2015-10-25 18:46:02
Дата пометки : UTC 2015-10-25 18:46:02
Видео
Идентификатор : 1
Формат : AVC
Формат/Информация : Advanced Video Codec
Профиль формата : High@L3.1
Параметр CABAC формата : Да
Параметр ReFrames формата : 3 кадра
Идентификатор кодека : avc1
Идентификатор кодека/Информация : Advanced Video Coding
Продолжительность : 1 ч. 37 м.
Битрейт : 1748 Кбит/сек
Ширина : 1280 пикселей
Высота : 720 пикселей
Соотношение сторон : 16:9
Режим частоты кадров : Переменный
Частота кадров : 23,976 кадра/сек
Частота кадров в оригинале : 25,000 кадров/сек
Минимальная частота кадров : 12,500 кадров/сек
Максимальная частота кадров : 25,000 кадров/сек
Цветовое пространство : YUV
Субдискретизация насыщенности : 4:2:0
Битовая глубина : 8 бит
Тип развёртки : Прогрессивная
Бит/(Пиксели*Кадры) : 0.079
Размер потока : 1,19 Гбайт (93%)
Дата кодирования : UTC 1970-01-01 00:00:00
Дата пометки : UTC 2015-10-25 18:47:29
Аудио
Идентификатор : 2
Формат : AAC
Формат/Информация : Advanced Audio Codec
Профиль формата : LC
Идентификатор кодека : 40
Продолжительность : 1 ч. 37 м.
Вид битрейта : Переменный
Битрейт : 128 Кбит/сек
Каналы : 2 канала
Расположение каналов : Front: L R
Частота : 44,1 КГц
Метод сжатия : С потерями
Размер потока : 89,0 Мбайт (7%)
Дата кодирования : UTC 1970-01-01 00:00:00
Дата пометки : UTC 2015-10-25 18:47:29

Скриншот c названием фильма

Скриншоты

Display posts:    

Current time is: 13-Dec 01:39

All times are UTC ± 0


You cannot post new topics in this forum
You cannot reply to topics in this forum
You cannot edit your posts in this forum
You cannot delete your posts in this forum
You cannot vote in polls in this forum
You cannot attach files in this forum
You cannot download files in this forum

!ATTENTION!
The site does not give electronic versions of products, and is engaged only in a collecting and cataloguing of the references sent and published at a forum by our readers. If you are the legal owner of any submitted material and do not wish that the reference to it was in our catalogue, contact us and we shall immediately remove her. Files for an exchange on tracker are given by users of a site, and the administration does not bear the responsibility for their maintenance. The request to not fill in the files protected by copyrights, and also files of the illegal maintenance!