[Quote]
Lestat

Сталкер- Жанр: фантастика, драма, детектив, приключения
Год выпуска: 1979
Продолжительность: 02:41:44
Режиссёр: Андрей Тарковский
В ролях: Александр Кайдановский, Анатолий Солоницын, Алиса Фрейндлих, Николай Гринько, Наташа Абрамова, Файме Юрно, Е. Костин, Раймо Ренди, Сергей Яковлев, Владимир Заманский
Описание: В этой ленте, снятой по мотивам повести братьев Стругацких «Пикник на обочине», действие происходит в некой запретной Зоне, где, по слухам, существует комната, где исполняются самые заветные желания.
К этой комнате отправляются модный Писатель и авторитетный Профессор — каждый по своим причинам, о которых предпочитают не говорить. А ведет их туда Сталкер — проводник по Зоне — то ли юродивый, то ли апостол новой веры…
Сэмпл: Скачать Сэмпл
Качество видео: BDRip
Формат видео: AVI
Видео: 704x528 (1.33:1), 23.976 fps, XviD build 65 ~1734 kbps avg, 0.19 bit/pixel
Аудио: Русский: AC3, 2.0, 48 kHz, ~192 Кбит/с | Оригинал |

MediaInfo

Полное имя : Stalker.1979.RUS.BDRip.XviD.AC3.-HQCLUB.avi
Формат : AVI
Формат/Информация : Audio Video Interleave
Профиль формата : OpenDML
Размер файла : 2,18 Гбайт
Продолжительность : 2 ч. 41 м.
Общий поток : 1933 Кбит/сек
Название фильма : Сталкер (1979) BDRip
Режиссёр : HQCLUB
Программа кодирования : VirtualDubMod 1.5.10.2 (build 2540/release)
Авторское право : Elheym
Примечание : 14.06.2015
Видео
Идентификатор : 0
Формат : MPEG-4 Visual
Профиль формата : Advanced Simple@L5
Параметр BVOP формата : 1
Параметр QPel формата : Нет
Параметр GMC формата : Без точки перехода
Параметр матрицы формата : Выборочная
Идентификатор кодека : XVID
Идентификатор кодека/Подсказка : XviD
Продолжительность : 2 ч. 41 м.
Битрейт : 1729 Кбит/сек
Ширина : 704 пикселя
Высота : 528 пикселей
Соотношение сторон : 4:3
Частота кадров : 23,976 кадра/сек
Цветовое пространство : YUV
Субдискретизация насыщенности : 4:2:0
Битовая глубина : 8 бит
Тип развёртки : Прогрессивная
Метод сжатия : С потерями
Бит/(Пиксели*Кадры) : 0.194
Размер потока : 1,95 Гбайт (89%)
Библиотека кодирования : XviD 65
Аудио
Идентификатор : 1
Формат : AC-3
Формат/Информация : Audio Coding 3
Расширение режима : CM (complete main)
Параметр Endianness формата : Big
Идентификатор кодека : 2000
Продолжительность : 2 ч. 41 м.
Вид битрейта : Постоянный
Битрейт : 192 Кбит/сек
Каналы : 2 канала
Расположение каналов : Front: L R
Частота : 48,0 КГц
Метод сжатия : С потерями
Размер потока : 222 Мбайт (10%)
Выравнивание : Разделение по промежуткам
Продолжительность промежутка : 42 мс. (1,00 видеокадр)
Время предзагрузки промежутка : 500 мс.

Скриншот c названием фильма

Скриншоты


_________________
Signed off for violation of forum rules
Display posts:    

Current time is: 10-Dec 03:30

All times are UTC ± 0


You cannot post new topics in this forum
You cannot reply to topics in this forum
You cannot edit your posts in this forum
You cannot delete your posts in this forum
You cannot vote in polls in this forum
You cannot attach files in this forum
You cannot download files in this forum

!ATTENTION!
The site does not give electronic versions of products, and is engaged only in a collecting and cataloguing of the references sent and published at a forum by our readers. If you are the legal owner of any submitted material and do not wish that the reference to it was in our catalogue, contact us and we shall immediately remove her. Files for an exchange on tracker are given by users of a site, and the administration does not bear the responsibility for their maintenance. The request to not fill in the files protected by copyrights, and also files of the illegal maintenance!