DL-List and Torrent activity
None
 
   
 
 

[Quote]
CMIT

День независимости: Возрождение / Independence Day: Resurgence
Страна: США / 20th Century Fox Film Corporation
Жанр: Фантастика, боевик, приключения
Год выпуска: 2016
Продолжительность: 02:00:11
Перевод: Профессиональный (дублированный)
Cубтитры: английские
Оригинальная аудиодорожка: английский
Режиссер: Роланд Эммерих
В ролях: Лиам Хемсворт, Джефф Голдблюм, Джесси Ашер, Билл Пуллман, Майка Монро, Села Уорд, Уильям Фихтнер, Джадд Хёрш, Брент Спайнер, Патрик Ст. Эсприт, Вивика А. Фокс, Анджела Бейби
Описание: Используя инопланетные технологии, жители Земли создали специальную программу по защите планеты. Но ничего не может нас спасти от нового, еще более разрушительного и масштабного инопланетного вторжения — только смелость нескольких героев, которые единственные могут спасти наш мир от уничтожения.
Качество видео: DVDRip
Формат видео: MKV
Видео: MPEG-4 AVC, 3936 Кбит/с, 1280x532
Аудио: Русский, английский (AC3, 6 ch, 384 Кбит/с)

MediaInfo

Общее
Уникальный идентификатор : 193998423893619065965002627390426217346 (0x91F2BCC48BF5BD3A88A8F131D69E7B82)
Полное имя : E:Раздача-BDRipVozrozhdenie.2O16.WEB-DL.720p. FreRutor.mkv
Формат : Matroska
Версия формата : Version 2
Размер файла : 4,02 Гбайт
Продолжительность : 2 ч. 0 м.
Общий поток : 4788 Кбит/сек
Название фильма : Independence.Day.Resurgence.2016.WEB-DL.720p_by_grab777_FreRutor
Дата кодирования : UTC 2016-09-23 19:36:10
Программа кодирования : mkvmerge v5.8.0 ('No Sleep / Pillow') built on Sep 2 2012 15:37:04
Библиотека кодирования : libebml v1.2.3 + libmatroska v1.3.0
Обложка : Yes / Yes / Yes / Yes
Видео
Идентификатор : 1
Формат : AVC
Формат/Информация : Advanced Video Codec
Профиль формата : Main@L3.1
Параметр CABAC формата : Нет
Параметр ReFrames формата : 2 кадра
Идентификатор кодека : V_MPEG4/ISO/AVC
Продолжительность : 2 ч. 0 м.
Битрейт : 3925 Кбит/сек
Ширина : 1280 пикселей
Высота : 532 пикселя
Соотношение сторон : 2,40:1
Режим частоты кадров : Постоянный
Частота кадров : 23,976 кадра/сек
Цветовое пространство : YUV
Субдискретизация насыщенности : 4:2:0
Битовая глубина : 8 бит
Тип развёртки : Прогрессивная
Бит/(Пиксели*Кадры) : 0.240
Размер потока : 3,30 Гбайт (82%)
Заголовок : by_grab777
Язык : English
Default : Да
Forced : Нет
Основные цвета : BT.709
Характеристики трансфера : BT.709
Коэффициенты матрицы : BT.709
Аудио #1
Идентификатор : 2
Формат : AC-3
Формат/Информация : Audio Coding 3
Расширение режима : CM (complete main)
Параметр Endianness формата : Big
Идентификатор кодека : A_AC3
Продолжительность : 2 ч. 0 м.
Вид битрейта : Постоянный
Битрейт : 384 Кбит/сек
Каналы : 6 каналов
Расположение каналов : Front: L C R, Side: L R, LFE
Частота : 48,0 КГц
Битовая глубина : 16 бит
Метод сжатия : С потерями
Размер потока : 330 Мбайт (8%)
Заголовок : DUB (Line)
Язык : Russian
Default : Да
Forced : Нет
Аудио #2
Идентификатор : 3
Формат : AC-3
Формат/Информация : Audio Coding 3
Расширение режима : CM (complete main)
Параметр Endianness формата : Big
Идентификатор кодека : A_AC3
Продолжительность : 2 ч. 0 м.
Вид битрейта : Постоянный
Битрейт : 384 Кбит/сек
Каналы : 6 каналов
Расположение каналов : Front: L C R, Side: L R, LFE
Частота : 48,0 КГц
Битовая глубина : 16 бит
Метод сжатия : С потерями
Размер потока : 330 Мбайт (8%)
Заголовок : Original
Язык : English
Default : Нет
Forced : Нет
Текст
Идентификатор : 4
Формат : UTF-8
Идентификатор кодека : S_TEXT/UTF8
Идентификатор кодека/Информация : UTF-8 Plain Text
Язык : English
Default : Нет
Forced : Нет
Меню
00:00:00.000 : en:1
00:05:36.378 : en:2
00:09:14.512 : en:3
00:14:05.761 : en:4
00:19:39.511 : en:5
00:22:58.042 : en:6
00:27:09.293 : en:7
00:31:36.685 : en:8
00:39:11.014 : en:9
00:43:40.158 : en:10
00:47:45.653 : en:11
00:52:31.230 : en:12
00:59:09.294 : en:13
01:01:59.172 : en:14
01:07:11.108 : en:15
01:09:53.854 : en:16
01:13:10.759 : en:17
01:18:26.491 : en:18
01:22:44.540 : en:19
01:27:50.846 : en:20
01:32:35.755 : en:21
01:39:37.176 : en:22
01:47:19.179 : en:23
01:50:35.750 : en:24

Скриншоты




Display posts:    

Current time is: 08-Jul 09:51

All times are UTC ± 0


You cannot post new topics in this forum
You cannot reply to topics in this forum
You cannot edit your posts in this forum
You cannot delete your posts in this forum
You cannot vote in polls in this forum
You cannot attach files in this forum
You cannot download files in this forum

!ATTENTION!
The site does not give electronic versions of products, and is engaged only in a collecting and cataloguing of the references sent and published at a forum by our readers. If you are the legal owner of any submitted material and do not wish that the reference to it was in our catalogue, contact us and we shall immediately remove her. Files for an exchange on tracker are given by users of a site, and the administration does not bear the responsibility for their maintenance. The request to not fill in the files protected by copyrights, and also files of the illegal maintenance!