Статистика раздачи
Нет
 
   
 
 

[Цитировать]
CMIT

В поисках Дори / Finding Dory
Страна: США
Жанр: Мультфильм, комедия, приключения, семейный
Год выпуска: 2016
Продолжительность: 01:37:02
Перевод: Профессиональный (дублированный) [iTunes] + Оригинал
Cубтитры: русские
Оригинальная аудиодорожка: английский
Режиссер: Эндрю Стэнтон, Энгус МакЛэйн
В ролях: Эллен ДеДженерес, Альберт Брукс, Эд О’Нил, Кэйтлин Олсон, Хайден Роуленс, Тай Буррелл, Дайан Китон, Юджин Леви, Слоун Мюррэй, Идрис Эльба.
Описание: Дори — синяя доброжелательная рыбка-хирург, страдающая провалами в памяти. Она упорно стремится избавиться от своего недуга и найти свою семью.
Качество видео: WEB-DLRip (AVC)
Формат видео: MKV
Видео: 1024x576 (16:9), 23.976 fps, ~ 2331 Kbps (0.165 bit/pixel)
Аудио: 48.0 KHz, 6 ch, 384 kbps | RUS / ENG

MediaInfo

General
Unique ID : 193745059871197934473412782917341394581 (0x91C1F0F4FE5487519FEBC3F7D5FFB695)
Complete name : В поисках Дори. 2016 (WEB-DLRip AVC).mkv
Format : Matroska
Format version : Version 2
File size : 2.14 GiB
Duration : 1h 37mn
Overall bit rate : 3 162 Kbps
Encoded date : UTC 2016-10-25 08:24:31
Writing application : mkvmerge v7.8.0 ('River Man') 32bit built on Apr 3 2015 12:11:22
Writing library : libebml v1.3.1 + libmatroska v1.4.2
Video
ID : 1
Format : AVC
Format/Info : Advanced Video Codec
Format profile : High@L3.1
Format settings, CABAC : Yes
Format settings, ReFrames : 3 frames
Codec ID : V_MPEG4/ISO/AVC
Duration : 1h 37mn
Bit rate : 2 331 Kbps
Width : 1 024 pixels
Height : 576 pixels
Display aspect ratio : 16:9
Frame rate mode : Constant
Frame rate : 23.976 fps
Color space : YUV
Chroma subsampling : 4:2:0
Bit depth : 8 bits
Scan type : Progressive
Bits/(Pixel*Frame) : 0.165
Stream size : 1.58 GiB (74%)
Language : English
Default : Yes
Forced : No
Audio #1
ID : 2
Format : AC-3
Format/Info : Audio Coding 3
Mode extension : CM (complete main)
Format settings, Endianness : Big
Codec ID : A_AC3
Duration : 1h 37mn
Bit rate mode : Constant
Bit rate : 384 Kbps
Channel(s) : 6 channels
Channel positions : Front: L C R, Side: L R, LFE
Sampling rate : 48.0 KHz
Compression mode : Lossy
Stream size : 267 MiB (12%)
Title : iTunes
Language : Russian
Default : Yes
Forced : No
Audio #2
ID : 3
Format : AC-3
Format/Info : Audio Coding 3
Mode extension : CM (complete main)
Format settings, Endianness : Big
Codec ID : A_AC3
Duration : 1h 37mn
Bit rate mode : Constant
Bit rate : 384 Kbps
Channel(s) : 6 channels
Channel positions : Front: L C R, Side: L R, LFE
Sampling rate : 48.0 KHz
Compression mode : Lossy
Stream size : 267 MiB (12%)
Language : English
Default : No
Forced : No
Text #1
ID : 4
Format : UTF-8
Codec ID : S_TEXT/UTF8
Codec ID/Info : UTF-8 Plain Text
Language : Russian
Default : No
Forced : No
Text #2
ID : 5
Format : UTF-8
Codec ID : S_TEXT/UTF8
Codec ID/Info : UTF-8 Plain Text
Language : English
Default : No
Forced : No
Menu
00:00:00.000 : en:1
00:02:35.000 : en:2
00:06:47.000 : en:3
00:11:01.000 : en:4
00:13:32.000 : en:5
00:15:25.000 : en:6
00:17:03.000 : en:7
00:19:35.000 : en:8
00:21:35.000 : en:9
00:24:58.000 : en:10
00:27:08.000 : en:11
00:30:33.000 : en:12
00:34:59.000 : en:13
00:37:52.000 : en:14
00:40:18.000 : en:15
00:41:06.000 : en:16
00:42:30.000 : en:17
00:46:03.000 : en:18
00:48:41.000 : en:19
00:50:28.000 : en:20
00:55:06.000 : en:21
00:57:06.000 : en:22
01:00:41.000 : en:23
01:04:32.000 : en:24
01:10:36.000 : en:25
01:12:28.000 : en:26
01:14:09.000 : en:27
01:18:26.000 : en:28
01:26:49.000 : en:29

Скриншоты




Показать сообщения:    

Текущее время: 20-Ноя 01:57

Часовой пояс: UTC ± 0


Вы не можете начинать темы
Вы не можете отвечать на сообщения
Вы не можете редактировать свои сообщения
Вы не можете удалять свои сообщения
Вы не можете голосовать в опросах
Вы не можете прикреплять файлы к сообщениям
Вы не можете скачивать файлы

!ВНИМАНИЕ!
Сайт не предоставляет электронные версии произведений, а занимается лишь коллекционированием и каталогизацией ссылок, присылаемых и публикуемых на форуме нашими читателями. Если вы являетесь правообладателем какого-либо представленного материала и не желаете, чтобы ссылка на него находилась в нашем каталоге, свяжитесь с нами, и мы незамедлительно удалим ее. Файлы для обмена на трекере предоставлены пользователями сайта, и администрация не несет ответственности за их содержание. Просьба не заливать файлы, защищенные авторскими правами, а также файлы нелегального содержания!