Статистика раздачи
Нет
 
   
 
 

[Цитировать]
CMIT

Морган / Morgan
Страна: США
Жанр: Ужасы, фантастика, триллер, драма, детектив
Год выпуска: 2016
Продолжительность: 01:32:28
Перевод: Профессиональный (дублированный) iTunes
Cубтитры: русские
Оригинальная аудиодорожка: английский
Режиссер: Люк Скотт
В ролях: Кейт Мара, Аня Тейлор-Джой, Роуз Лесли, Майкл Йар, Тоби Джонс, Крис Салливан, Бойд Холбрук, Винетт Робинсон, Мишель Йео, Брайан Кокс
Описание: Сотрудница по устранению аварий отправляется в отдаленный секретный филиал, где должна расследовать и оценить потери от ужасной катастрофы. На месте она узнает, что случившееся было вызвано, казалось бы, невинным «человеком», чье существование само по себе является опасной тайной.
Качество видео: WEB-DL 720p
Формат видео: MPEG-4
Видео: 1280x534, 4050 Kbit/s, 23.976 fps
Аудио: 48 kHz, AC3, 5.1, 384 Kbps | Дублированный | iTunes |
Аудио 2: 48 kHz, AC3, 5.1, 384 kbps | Оригинал |

MediaInfo

General
Unique ID : 194993601654145632394583918742920428350 (0x92B266D1CFA54132A27595091D5EFB3E)
Complete name : G:VideoMorgan.2016.D.WEB-DL.720p.ExKinoRay.mkv
Format : Matroska
Format version : Version 4 / Version 2
File size : 3.11 GiB
Duration : 1 h 32 min
Overall bit rate : 4 816 kb/s
Movie name : ExKinoRay
Encoded date : UTC 2016-12-01 20:38:28
Writing application : mkvmerge v8.3.0 ('Over the Horizon') 64bit
Writing library : libebml v1.3.1 + libmatroska v1.4.2
Video
ID : 1
Format : AVC
Format/Info : Advanced Video Codec
Format profile : Main@L3.1
Format settings, CABAC : No
Format settings, ReFrames : 2 frames
Codec ID : V_MPEG4/ISO/AVC
Duration : 1 h 32 min
Bit rate : 4 050 kb/s
Width : 1 280 pixels
Height : 534 pixels
Display aspect ratio : 2.40:1
Frame rate mode : Constant
Frame rate : 23.976 FPS
Color space : YUV
Chroma subsampling : 4:2:0
Bit depth : 8 bits
Scan type : Progressive
Bits/(Pixel*Frame) : 0.247
Stream size : 2.62 GiB (84%)
Language : English
Default : Yes
Forced : No
Color range : Limited
Color primaries : BT.709
Transfer characteristics : BT.709
Matrix coefficients : BT.709
Audio #1
ID : 2
Format : AC-3
Format/Info : Audio Coding 3
Mode extension : CM (complete main)
Format settings, Endianness : Big
Codec ID : A_AC3
Duration : 1 h 31 min
Bit rate mode : Constant
Bit rate : 384 kb/s
Channel(s) : 6 channels
Channel positions : Front: L C R, Side: L R, LFE
Sampling rate : 48.0 kHz
Frame rate : 31.250 FPS (1536 spf)
Bit depth : 16 bits
Compression mode : Lossy
Stream size : 252 MiB (8%)
Title : Dub [iTunes]
Language : Russian
Default : Yes
Forced : No
Audio #2
ID : 3
Format : AC-3
Format/Info : Audio Coding 3
Mode extension : CM (complete main)
Format settings, Endianness : Big
Codec ID : A_AC3
Duration : 1 h 31 min
Bit rate mode : Constant
Bit rate : 384 kb/s
Channel(s) : 6 channels
Channel positions : Front: L C R, Side: L R, LFE
Sampling rate : 48.0 kHz
Frame rate : 31.250 FPS (1536 spf)
Bit depth : 16 bits
Compression mode : Lossy
Stream size : 252 MiB (8%)
Title : Original
Language : English
Default : No
Forced : No
Text #1
ID : 4
Format : UTF-8
Codec ID : S_TEXT/UTF8
Codec ID/Info : UTF-8 Plain Text
Duration : 1 h 29 min
Bit rate : 1 b/s
Count of elements : 20
Stream size : 950 Bytes (0%)
Title : Forced [iTunes]
Language : Russian
Default : Yes
Forced : No
Text #2
ID : 5
Format : UTF-8
Codec ID : S_TEXT/UTF8
Codec ID/Info : UTF-8 Plain Text
Duration : 1 h 30 min
Bit rate : 72 b/s
Count of elements : 1101
Stream size : 48.2 KiB (0%)
Title : Full [iTunes]
Language : Russian
Default : No
Forced : No
Text #3
ID : 6
Format : UTF-8
Codec ID : S_TEXT/UTF8
Codec ID/Info : UTF-8 Plain Text
Duration : 1 h 29 min
Bit rate : 1 b/s
Count of elements : 27
Stream size : 1.27 KiB (0%)
Title : Forced [iTunes]
Language : Ukrainian
Default : No
Forced : No
Text #4
ID : 7
Format : UTF-8
Codec ID : S_TEXT/UTF8
Codec ID/Info : UTF-8 Plain Text
Duration : 1 h 30 min
Bit rate : 73 b/s
Count of elements : 1103
Stream size : 49.0 KiB (0%)
Title : Full [iTunes]
Language : Ukrainian
Default : No
Forced : No
Text #5
ID : 8
Format : UTF-8
Codec ID : S_TEXT/UTF8
Codec ID/Info : UTF-8 Plain Text
Duration : 42 min 54 s
Bit rate : 1 b/s
Count of elements : 14
Stream size : 372 Bytes (0%)
Title : Forced
Language : English
Default : No
Forced : No
Text #6
ID : 9
Format : UTF-8
Codec ID : S_TEXT/UTF8
Codec ID/Info : UTF-8 Plain Text
Duration : 1 h 30 min
Bit rate : 43 b/s
Count of elements : 1059
Stream size : 29.3 KiB (0%)
Title : Full
Language : English
Default : No
Forced : No
Menu
00:00:00.000 : en:1
00:03:42.806 : en:2
00:07:22.108 : en:3
00:11:41.492 : en:4
00:16:04.046 : en:5
00:20:29.978 : en:6
00:25:36.034 : en:7
00:28:45.223 : en:8
00:34:19.974 : en:9
00:37:17.568 : en:10
00:40:45.817 : en:11
00:43:46.831 : en:12
00:48:13.931 : en:13
00:51:28.458 : en:14
00:54:45.696 : en:15
00:59:50.751 : en:16
01:03:44.109 : en:17
01:08:01.324 : en:18
01:11:43.462 : en:19
01:13:46.126 : en:20
01:17:03.406 : en:21
01:20:01.375 : en:22
01:22:32.234 : en:23
01:25:10.642 : en:24

Скриншоты



Показать сообщения:    

Текущее время: 23-Янв 20:53

Часовой пояс: UTC ± 0


Вы не можете начинать темы
Вы не можете отвечать на сообщения
Вы не можете редактировать свои сообщения
Вы не можете удалять свои сообщения
Вы не можете голосовать в опросах
Вы не можете прикреплять файлы к сообщениям
Вы не можете скачивать файлы

!ВНИМАНИЕ!
Сайт не предоставляет электронные версии произведений, а занимается лишь коллекционированием и каталогизацией ссылок, присылаемых и публикуемых на форуме нашими читателями. Если вы являетесь правообладателем какого-либо представленного материала и не желаете, чтобы ссылка на него находилась в нашем каталоге, свяжитесь с нами, и мы незамедлительно удалим ее. Файлы для обмена на трекере предоставлены пользователями сайта, и администрация не несет ответственности за их содержание. Просьба не заливать файлы, защищенные авторскими правами, а также файлы нелегального содержания!